找回密码

蓝光电影网

查看: 41|回复: 1

[剧情] 冰冻星球[共8部合集][国英多音轨/简繁英特效字幕].BBC.Earth.Frozen.Planet.2011.EP01-EP08.BluRay.1080p.2Audio.DTS-HD.MA5.1.x265.10bit-ALT 41.19GB

[复制链接]
蓝光币
7
发表于 2022-7-31 01:58:08 | 显示全部楼层 |阅读模式


◎标  题 冰冻星球
◎译  名 冰冷星球
◎片  名 Frozen Planet
◎年  代 2011
◎产  地 英国
◎类  别 记载片
◎语  言 英语
◎上映日期 2011-10-26(英国)
◎IMDb评分 9/10 (29842人评价)
◎IMDb链接 https://www.imdb.com/title/tt2092588/
◎豆瓣评分 9.7/10 (17457人评价)
◎豆瓣链接 https://movie.douban.com/subject/6886533/
◎片  长 60分钟
◎导  演 艾雷斯泰·法瑟吉尔 Alastair Fothergill
◎编  剧 大卫·爱登堡 David Attenborough
◎演  员 大卫·爱登堡 David Attenborough
       李易 Yi Li
       大泽隆夫 Takao Ôsawa
       乔治·芬顿 George Fenton
◎简  介
  英国BBC电视台耗时5年建造的记载片《冰冻地球》于近期推出。这部耗资庞大的记载片用镜头实在的展现了正在逐步消融的地球两极,以及生活在这里的各类生物,片中各种气象让人蔚为大观。                                       
                                    记载片的讲解员大卫·艾登堡(David Attenborough)爵士称,这能够是人类在地球气 候发生剧烈变化前欣赏到这一气象的最初的机遇了。现年85岁的艾登堡爵士说,“这部记载片捕捉了此前从未记录下来的很多行为和现象。随着时候的流逝,这些影象将会变得越来越珍贵,由于这极能够是我们最初的机遇去记录下这些珍贵的场景。虽然在我们到达前的数百年甚至几千年前,地球两极的气象很是壮观,可是比来一个世纪以来,很多变化已经跨越了人们的熟悉。”                                       
                                    《冰冻地球》的摄制组采用了可以在高温下工作的特别摄影机停止拍摄。这部耗时5年才问世的记载片捕捉了很多珍贵的画面,表示出大自然奥秘奇异的一面:包括冰山崩...
  1. 合集文件列表:
  2. 1.BBC.Earth.Frozen.Planet.2011.EP01.BluRay.1080p.2Audio.DTS-HD.MA5.1.x265.10bit-ALT.mkv 6.18GB
  3. 2.BBC.Earth.Frozen.Planet.2011.EP02.BluRay.1080p.2Audio.DTS-HD.MA5.1.x265.10bit-ALT.mkv 5.66GB
  4. 3.BBC.Earth.Frozen.Planet.2011.EP03.BluRay.1080p.2Audio.DTS-HD.MA5.1.x265.10bit-ALT.mkv 6.28GB
  5. 4.BBC.Earth.Frozen.Planet.2011.EP04.BluRay.1080p.2Audio.DTS-HD.MA5.1.x265.10bit-ALT.mkv 5.66GB
  6. 5.BBC.Earth.Frozen.Planet.2011.EP05.BluRay.1080p.2Audio.DTS-HD.MA5.1.x265.10bit-ALT.mkv 5.52GB
  7. 6.BBC.Earth.Frozen.Planet.2011.EP06.BluRay.1080p.2Audio.DTS-HD.MA5.1.x265.10bit-ALT.mkv 5.32GB
  8. 7.BBC.Earth.Frozen.Planet.2011.EP07.BluRay.1080p.2Audio.DTS-HD.MA5.1.x265.10bit-ALT.mkv 5.40GB
  9. 8.BBC.Earth.Frozen.Planet.2011.EP08.BluRay.1080p.2Audio.DTS-HD.MA5.1.x265.10bit-ALT.mkv 1.16GB
复制代码
  1. ##### MediaInfo ######
  2. General
  3. Unique ID                                : 324111692280060213880915154329871436703 (0xF3D5A42F6FAA9E62CE18184FC985CB9F)
  4. Complete name                            : BBC.Earth.Frozen.Planet.2011.EP01.BluRay.1080p.2Audio.DTS-HD.MA5.1.x265.10bit-ALT.mkv
  5. Format                                   : Matroska
  6. Format version                           : Version 4
  7. File size                                : 6.18 GiB
  8. Duration                                 : 58 min 33 s
  9. Overall bit rate mode                    : Variable
  10. Overall bit rate                         : 15.1 Mb/s
  11. Encoded date                             : UTC 2020-11-02 06:00:26
  12. Writing application                      : mkvmerge v49.0.0 ('Sick Of Losing Soulmates') 64-bit
  13. Writing library                          : libebml v1.4.0 + libmatroska v1.6.1
  14. Video
  15. ID                                       : 1
  16. Format                                   : HEVC
  17. Format/Info                              : High Efficiency Video Coding
  18. Format profile                           : Main [email protected]@High
  19. Codec ID                                 : V_MPEGH/ISO/HEVC
  20. Duration                                 : 58 min 33 s
  21. Bit rate                                 : 11.7 Mb/s
  22. Width                                    : 1 920 pixels
  23. Height                                   : 1 080 pixels
  24. Display aspect ratio                     : 16:9
  25. Frame rate mode                          : Constant
  26. Frame rate                               : 25.000 FPS
  27. Color space                              : YUV
  28. Chroma subsampling                       : 4:2:0
  29. Bit depth                                : 10 bits
  30. Bits/(Pixel*Frame)                       : 0.226
  31. Stream size                              : 4.78 GiB (77%)
  32. Title                                    : HEVC, [email protected]@High, 25 fps
  33. Writing library                          : x265 3.4+14-gd419c7152:[Windows][GCC 10.2.0][64 bit] 10bit
  34. Encoding settings                        : cpuid=538751111039 / frame-threads=3 / numa-pools=8 / wpp / pmode / pme / no-psnr / no-ssim / log-level=2 / input-csp=1 / input-res=1920x1080 / interlace=0 / total-frames=87825 / level-idc=51 / high-tier=1 / uhd-bd=0 / ref=5 / no-allow-non-conformance / no-repeat-headers / annexb / no-aud / no-hrd / info / hash=0 / no-temporal-layers / open-gop / min-keyint=24 / keyint=240 / gop-lookahead=0 / bframes=6 / b-adapt=2 / b-pyramid / bframe-bias=0 / rc-lookahead=40 / lookahead-slices=0 / NTM4NzU=uuDQuD2mJt9fsCf / scenecut=40 / hist-scenecut=0 / radl=0 / no-splice / no-intra-refresh / ctu=32 / min-cu-size=8 / no-rect / no-amp / max-tu-size=32 / tu-inter-depth=3 / tu-intra-depth=3 / limit-tu=4 / rdoq-level=2 / dynamic-rd=0.00 / no-ssim-rd / signhide / no-tskip / nr-intra=0 / nr-inter=0 / no-constrained-intra / no-strong-intra-smoothing / max-merge=4 / limit-refs=1 / limit-modes / me=3 / subme=4 / merange=25 / temporal-mvp / no-frame-dup / no-hme / weightp / weightb / no-analyze-src-pics / deblock=-3:-3 / no-sao / no-sao-non-deblock / rd=6 / selective-sao=0 / no-early-skip / rskip / no-fast-intra / no-tskip-fast / no-cu-lossless / b-intra / no-splitrd-skip / rdpenalty=0 / psy-rd=2.00 / psy-rdoq=1.00 / no-rd-refine / no-lossless / cbqpoffs=0 / crqpoffs=0 / rc=crf / crf=18.5 / qcomp=0.65 / qpstep=4 / stats-write=0 / stats-read=0 / vbv-maxrate=80000 / vbv-bufsize=80000 / vbv-init=0.9 / crf-max=0.0 / crf-min=0.0 / ipratio=1.40 / pbratio=1.30 / aq-mode=2 / aq-strength=0.85 / cutree / zone-count=0 / no-strict-cbr / qg-size=32 / no-rc-grain / qpmax=69 / qpmin=0 / no-const-vbv / sar=1 / overscan=0 / videoformat=5 / range=0 / colorprim=1 / transfer=1 / colormatrix=1 / chromaloc=0 / display-window=0 / cll=0,0 / min-luma=0 / max-luma=1023 / log2-max-poc-lsb=8 / vui-timing-info / vui-hrd-info / slices=1 / no-opt-qp-pps / no-opt-ref-list-length-pps / no-multi-pass-opt-rps / scenecut-bias=0.05 / hist-threshold=0.03 / no-opt-cu-delta-qp / no-aq-motion / no-hdr10 / no-hdr10-opt / no-dhdr10-opt / no-idr-recovery-sei / analysis-reuse-level=0 / analysis-save-reuse-level=0 / analysis-load-reuse-level=0 / scale-factor=0 / refine-intra=0 / refine-inter=0 / refine-mv=1 / refine-ctu-distortion=0 / no-limit-sao / ctu-info=0 / no-lowpass-dct / refine-analysis-type=0 / copy-pic=1 / max-ausize-factor=1.0 / no-dynamic-refine / no-single-sei / no-hevc-aq / no-svt / no-field / qp-adaptation-range=1.00 / no-scenecut-aware-qpconformance-window-offsets / right=0 / bottom=0 / NTM4NzU= / decoder-max-rate=0
  35. Language                                 : English
  36. Default                                  : Yes
  37. Forced                                   : No
  38. Color range                              : Limited
  39. Color primaries                          : BT.709
  40. Transfer characteristics                 : BT.709
  41. Matrix coefficients                      : BT.709
  42. Audio #1
  43. ID                                       : 2
  44. Format                                   : DTS XLL
  45. Format/Info                              : Digital Theater Systems
  46. Commercial name                          : DTS-HD Master Audio
  47. Codec ID                                 : A_DTS
  48. Duration                                 : 58 min 33 s
  49. Bit rate mode                            : Variable
  50. Bit rate                                 : 2 325 kb/s
  51. Channel(s)                               : 6 channels
  52. Channel layout                           : C L R Ls Rs LFE
  53. Sampling rate                            : 48.0 kHz
  54. Frame rate                               : 93.750 FPS (512 SPF)
  55. Bit depth                                : 16 bits
  56. Compression mode                         : Lossless
  57. Stream size                              : 974 MiB (15%)
  58. Title                                    : English DTS-HD Master Audio 5.1 @ 2367 kbps
  59. Language                                 : English
  60. Default                                  : Yes
  61. Forced                                   : No
  62. Audio #2
  63. ID                                       : 3
  64. Format                                   : AC-3
  65. Format/Info                              : Audio Coding 3
  66. Commercial name                          : Dolby Digital
  67. Codec ID                                 : A_AC3
  68. Duration                                 : 58 min 33 s
  69. Bit rate mode                            : Constant
  70. Bit rate                                 : 640 kb/s
  71. Channel(s)                               : 6 channels
  72. Channel layout                           : L R C LFE Ls Rs
  73. Sampling rate                            : 48.0 kHz
  74. Frame rate                               : 31.250 FPS (1536 SPF)
  75. Compression mode                         : Lossy
  76. Stream size                              : 268 MiB (4%)
  77. Title                                    : Mandarin Dolby Digital Audio 5.1 @ 640 kbps 央视国语
  78. Language                                 : Chinese
  79. Service kind                             : Complete Main
  80. Default                                  : No
  81. Forced                                   : No
  82. Text #1
  83. ID                                       : 4
  84. Format                                   : PGS
  85. Codec ID                                 : S_HDMV/PGS
  86. Codec ID/Info                            : Picture based subtitle format used on BDs/HD-DVDs
  87. Duration                                 : 57 min 22 s
  88. Bit rate                                 : 41.4 kb/s
  89. Count of elements                        : 1160
  90. Stream size                              : 17.0 MiB (0%)
  91. Title                                    : Eng/SUP
  92. Language                                 : English
  93. Default                                  : No
  94. Forced                                   : No
  95. Text #2
  96. ID                                       : 5
  97. Format                                   : PGS
  98. Codec ID                                 : S_HDMV/PGS
  99. Codec ID/Info                            : Picture based subtitle format used on BDs/HD-DVDs
  100. Duration                                 : 57 min 57 s
  101. Bit rate                                 : 102 kb/s
  102. Count of elements                        : 1747
  103. Stream size                              : 42.3 MiB (1%)
  104. Title                                    : Chs/SUP  简体殊效 对应英语
  105. Language                                 : Chinese
  106. Default                                  : Yes
  107. Forced                                   : No
  108. Text #3
  109. ID                                       : 6
  110. Format                                   : PGS
  111. Codec ID                                 : S_HDMV/PGS
  112. Codec ID/Info                            : Picture based subtitle format used on BDs/HD-DVDs
  113. Duration                                 : 57 min 57 s
  114. Bit rate                                 : 104 kb/s
  115. Count of elements                        : 1747
  116. Stream size                              : 43.1 MiB (1%)
  117. Title                                    : Cht/SUP  繁体殊效 对应英语
  118. Language                                 : Chinese
  119. Default                                  : No
  120. Forced                                   : No
  121. Text #4
  122. ID                                       : 7
  123. Format                                   : PGS
  124. Codec ID                                 : S_HDMV/PGS
  125. Codec ID/Info                            : Picture based subtitle format used on BDs/HD-DVDs
  126. Duration                                 : 57 min 46 s
  127. Bit rate                                 : 98.7 kb/s
  128. Count of elements                        : 1739
  129. Stream size                              : 40.8 MiB (1%)
  130. Title                                    : Chs/SUP  简体殊效 对应国语
  131. Language                                 : Chinese
  132. Default                                  : No
  133. Forced                                   : No
  134. Text #5
  135. ID                                       : 8
  136. Format                                   : PGS
  137. Codec ID                                 : S_HDMV/PGS
  138. Codec ID/Info                            : Picture based subtitle format used on BDs/HD-DVDs
  139. Duration                                 : 57 min 46 s
  140. Bit rate                                 : 101 kb/s
  141. Count of elements                        : 1739
  142. Stream size                              : 41.6 MiB (1%)
  143. Title                                    : Cht/SUP  繁体殊效 对应国语
  144. Language                                 : Chinese
  145. Default                                  : No
  146. Forced                                   : No
  147. Menu
  148. 00:00:00.000                             : :第 01 章
  149. 00:10:36.480                             : :第 02 章
  150. 00:18:55.400                             : :第 03 章
  151. 00:32:07.880                             : :第 04 章
  152. 00:39:31.200                             : :第 05 章
  153. 00:48:41.440                             : :第 06 章
复制代码

















保举请利用qBittorrent,utorrent,transmission等标准BT软件下载!以获得最快速度。奉求保种!





回复

使用道具 举报

蓝光币
130
发表于 2022-7-31 07:33:53 | 显示全部楼层

楼主太厉害了!楼主,电影应该很好看我觉得蓝光电影网真是个好地方!
回复 支持 反对

使用道具 举报

懒得打字嘛,点击右侧快捷回复 【右侧内容,后台自定义】
您需要登录后才可以回帖 登录 | 立即加入

本版积分规则

Archiver|小黑屋| 蓝光电影网 |网站地图

Copyright © 2021 Comsenz Inc. Powered by 蓝光电影网

蓝光电影网

本站内容由用户自主分享和转载自互联网,转载目的在于传递更多信息,并不代表本网赞同其观点和对其真实性负责。

如有侵权、违反国家法律政策行为,请联系我们,我们会第一时间及时清除和处理!

举报反馈邮箱:[email protected]

快速回复 返回顶部 返回列表