找回密码

蓝光电影网

查看: 15|回复: 0

[剧情] 时间规划局[简繁英字幕].In.Time.2011.1080p.AMZN.WEB-DL.H264.DDP5.1-TAGWEB 6.21GB

[复制链接]
蓝光币
7
发表于 2022-7-31 01:58:25 | 显示全部楼层 |阅读模式


◎标  题 时候计划局
◎译  名 潜逃时空(港) / 钟点战(台) / 止时纪 / 我是凡人 / 现在
◎片  名 In Time
◎年  代 2011
◎产  地 美国
◎类  别 行动 / 科幻
◎语  言 英语
◎上映日期 2011-10-20(加州首映) / 2011-10-28(美国)
◎IMDb评分 6.7/10 (391723人评价)
◎IMDb链接 https://www.imdb.com/title/tt1637688/
◎豆瓣评分 7.0/10 (194329人评价)
◎豆瓣链接 https://movie.douban.com/subject/4924142/
◎片  长 109分钟
◎导  演 安德鲁·尼科尔 Andrew Niccol
◎编  剧 安德鲁·尼科尔 Andrew Niccol
◎演  员 阿曼达·塞弗里德 Amanda Seyfried
       贾斯汀·汀布莱克 Justin Timberlake
       基里安·墨菲 Cillian Murphy
       文森特·卡塞瑟 Vincent Kartheiser
       亚历克斯·帕蒂弗 Alex Pettyfer
       约翰尼·盖尔克奇 Johnny Galecki
       奥利维亚·王尔德 Olivia Wilde
       马特·波莫 Matt Bomer
       贝拉·希思科特 Bella Heathcote
       萨莎·彼福瓦洛娃 Sasha Pivovarova
       梅丽莎·奥德维 Melissa Ordway
       瑞秋·罗伯茨 Rachel Roberts
       斯特灵·苏利曼 Sterling Sulieman
       山姆·米德 Sam Meader
       August Emerson August Emerson
       祖勒卡·席尔瓦 Zuleyka Silver
       Seema Lazar Seema Lazar
       克里斯蒂安·马德森 Christian Madsen
       威廉·佩尔茨 william peltz
       法耶·金斯利 Faye Kingslee
       杰西卡·帕克·肯尼迪 Jessica Parker Kennedy
       艾玛·菲茨帕特里克 Emma Fitzpatrick
◎标  签 科幻 / 美国 / 人性 / 恋爱 / 行动 / 剧情 / 2011 / 犯罪
◎简  介
    在未来,人类可以为所欲为的操控时候,改写年龄。在人类社会,不管这小我活多久,他的年龄被永久定格在25岁。由于没有了自然灭亡,为了避免生齿收缩。人类社会抛弃了以往的货币,改用时候作为货币畅通。一小我的时候用完以后,这小我就会灭亡。一个名叫威尔(贾斯汀·丁伯莱克 Justin Timberlake 饰)的贫民,却意外获得了一笔庞大的财富,具有了用不完的时候。可是却由于此事被锁定为一场谋杀案的怀疑人,由此走上了流亡之路。在流亡进程中,绑架了时候银行的女继续人(阿曼达·塞弗里德 Amanda Seyfried 饰)。在全部流亡进程中,他们之间迸发出了豪情的火花。而且两人都对现有的时候治理机制都很是不满,进而联手起来匹敌这个统治机构。仅凭两人之力可以颠覆成熟的权利机构吗?
  1. ##### MediaInfo ######
  2. General
  3. Unique ID                                : 201110245515983152107536150159354721621 (0x974C6CA53B38BB23A2FFE65507677555)
  4. Complete name                            : In.Time.2011.1080p.AMZN.WEB-DL.H264.DDP5.1-TAGWEB.mkv
  5. Format                                   : Matroska
  6. Format version                           : Version 4
  7. File size                                : 6.20 GiB
  8. Duration                                 : 1 h 50 min
  9. Overall bit rate                         : 8 060 kb/s
  10. Encoded date                             : UTC 2022-07-16 00:11:38
  11. Writing application                      : mkvmerge v67.0.0 ('Under Stars') 64-bit
  12. Writing library                          : libebml v1.4.2 + libmatroska v1.6.4
  13. Video
  14. ID                                       : 1
  15. Format                                   : AVC
  16. Format/Info                              : Advanced Video Codec
  17. Format profile                           : [email protected]
  18. Format settings                          : CABAC / 4 Ref Frames
  19. Format settings, CABAC                   : Yes
  20. Format settings, Reference frames        : 4 frames
  21. Codec ID                                 : V_MPEG4/ISO/AVC
  22. Duration                                 : 1 h 50 min
  23. Bit rate                                 : 3 574 kb/s
  24. Width                                    : 1 920 pixels
  25. Height                                   : 816 pixels
  26. Display aspect ratio                     : 2.35:1
  27. Frame rate mode                          : Constant
  28. Frame rate                               : 23.976 (24000/1001/53875) FPS
  29. Color space                              : YUV
  30. Chroma subsampling                       : 4:2:0
  31. Bit depth                                : 8 bits
  32. Scan type                                : Progressive
  33. Bits/(Pixel*Frame)                       : 0.095
  34. Stream size                              : 2.75 GiB (44%)
  35. Language                                 : English
  36. Default                                  : Yes
  37. Forced                                   : No
  38. Color range                              : Limited
  39. Color primaries                          : BT.709
  40. Transfer characteristics                 : BT.709
  41. Matrix coefficients                      : BT.709
  42. Audio #1
  43. ID                                       : 2
  44. Format                                   : E-AC-3
  45. Format/Info                              : Enhanced AC-3
  46. Commercial name                          : Dolby Digital Plus
  47. Codec ID                                 : A_EAC3
  48. Duration                                 : 1 h 50 min
  49. Bit rate mode                            : Constant
  50. Bit rate                                 : 640 kb/s
  51. Channel(s)                               : 6 channels
  52. Channel layout                           : L R C LFE Ls Rs
  53. Sampling rate                            : 48.0 kHz
  54. Frame rate                               : 31.250 FPS (1536 SPF)
  55. Compression mode                         : Lossy
  56. Stream size                              : 505 MiB (8%)
  57. Title                                    : English
  58. Language                                 : English
  59. Service kind                             : Complete Main
  60. Default                                  : Yes
  61. Forced                                   : No
  62. Audio #2
  63. ID                                       : 3
  64. Format                                   : E-AC-3
  65. Format/Info                              : Enhanced AC-3
  66. Commercial name                          : Dolby Digital Plus
  67. Codec ID                                 : A_EAC3
  68. Duration                                 : 1 h 50 min
  69. Bit rate mode                            : Constant
  70. Bit rate                                 : 640 kb/s
  71. Channel(s)                               : 6 channels
  72. Channel layout                           : L R C LFE Ls Rs
  73. Sampling rate                            : 48.0 kHz
  74. Frame rate                               : 31.250 FPS (1536 SPF)
  75. Compression mode                         : Lossy
  76. Stream size                              : 504 MiB (8%)
  77. Title                                    : espa?ol
  78. Language                                 : Spanish
  79. Service kind                             : Complete Main
  80. Default                                  : No
  81. Forced                                   : No
  82. Audio #3
  83. ID                                       : 4
  84. Format                                   : E-AC-3
  85. Format/Info                              : Enhanced AC-3
  86. Commercial name                          : Dolby Digital Plus
  87. Codec ID                                 : A_EAC3
  88. Duration                                 : 1 h 50 min
  89. Bit rate mode                            : Constant
  90. Bit rate                                 : 640 kb/s
  91. Channel(s)                               : 6 channels
  92. Channel layout                           : L R C LFE Ls Rs
  93. Sampling rate                            : 48.0 kHz
  94. Frame rate                               : 31.250 FPS (1536 SPF)
  95. Compression mode                         : Lossy
  96. Stream size                              : 504 MiB (8%)
  97. Title                                    : Deutsch
  98. Language                                 : German
  99. Service kind                             : Complete Main
  100. Default                                  : No
  101. Forced                                   : No
  102. Audio #4
  103. ID                                       : 5
  104. Format                                   : E-AC-3
  105. Format/Info                              : Enhanced AC-3
  106. Commercial name                          : Dolby Digital Plus
  107. Codec ID                                 : A_EAC3
  108. Duration                                 : 1 h 50 min
  109. Bit rate mode                            : Constant
  110. Bit rate                                 : 640 kb/s
  111. Channel(s)                               : 6 channels
  112. Channel layout                           : L R C LFE Ls Rs
  113. Sampling rate                            : 48.0 kHz
  114. Frame rate                               : 31.250 FPS (1536 SPF)
  115. Compression mode                         : Lossy
  116. Stream size                              : 504 MiB (8%)
  117. Title                                    : fran?ais
  118. Language                                 : French
  119. Service kind                             : Complete Main
  120. Default                                  : No
  121. Forced                                   : No
  122. Audio #5
  123. ID                                       : 6
  124. Format                                   : E-AC-3
  125. Format/Info                              : Enhanced AC-3
  126. Commercial name                          : Dolby Digital Plus
  127. Codec ID                                 : A_EAC3
  128. Duration                                 : 1 h 50 min
  129. Bit rate mode                            : Constant
  130. Bit rate                                 : 640 kb/s
  131. Channel(s)                               : 6 channels
  132. Channel layout                           : L R C LFE Ls Rs
  133. Sampling rate                            : 48.0 kHz
  134. Frame rate                               : 31.250 FPS (1536 SPF)
  135. Compression mode                         : Lossy
  136. Stream size                              : 505 MiB (8%)
  137. Title                                    : polski
  138. Language                                 : Polish
  139. Service kind                             : Complete Main
  140. Default                                  : No
  141. Forced                                   : No
  142. Audio #6
  143. ID                                       : 7
  144. Format                                   : E-AC-3
  145. Format/Info                              : Enhanced AC-3
  146. Commercial name                          : Dolby Digital Plus
  147. Codec ID                                 : A_EAC3
  148. Duration                                 : 1 h 50 min
  149. Bit rate mode                            : Constant
  150. Bit rate                                 : 640 kb/s
  151. Channel(s)                               : 6 channels
  152. Channel layout                           : L R C LFE Ls Rs
  153. Sampling rate                            : 48.0 kHz
  154. Frame rate                               : 31.250 FPS (1536 SPF)
  155. Compression mode                         : Lossy
  156. Stream size                              : 504 MiB (8%)
  157. Title                                    : português
  158. Language                                 : Portuguese
  159. Service kind                             : Complete Main
  160. Default                                  : No
  161. Forced                                   : No
  162. Audio #7
  163. ID                                       : 8
  164. Format                                   : E-AC-3
  165. Format/Info                              : Enhanced AC-3
  166. Commercial name                          : Dolby Digital Plus
  167. Codec ID                                 : A_EAC3
  168. Duration                                 : 1 h 50 min
  169. Bit rate mode                            : Constant
  170. Bit rate                                 : 640 kb/s
  171. Channel(s)                               : 6 channels
  172. Channel layout                           : L R C LFE Ls Rs
  173. Sampling rate                            : 48.0 kHz
  174. Frame rate                               : 31.250 FPS (1536 SPF)
  175. Compression mode                         : Lossy
  176. Stream size                              : 504 MiB (8%)
  177. Title                                    : Türk?e
  178. Language                                 : Turkish
  179. Service kind                             : Complete Main
  180. Default                                  : No
  181. Forced                                   : No
  182. Text #1
  183. ID                                       : 9
  184. Format                                   : UTF-8
  185. Codec ID                                 : S_TEXT/UTF8
  186. Codec ID/Info                            : UTF-8 Plain Text
  187. Duration                                 : 1 h 48 min
  188. Bit rate                                 : 30 b/s
  189. Count of elements                        : 1092
  190. Stream size                              : 23.9 KiB (0%)
  191. Title                                    : 中文 (简体)
  192. Language                                 : Chinese
  193. Default                                  : Yes
  194. Forced                                   : No
  195. Text #2
  196. ID                                       : 10
  197. Format                                   : UTF-8
  198. Codec ID                                 : S_TEXT/UTF8
  199. Codec ID/Info                            : UTF-8 Plain Text
  200. Duration                                 : 1 h 48 min
  201. Bit rate                                 : 30 b/s
  202. Count of elements                        : 1091
  203. Stream size                              : 23.8 KiB (0%)
  204. Title                                    : 中文 (繁體)
  205. Language                                 : Chinese
  206. Default                                  : No
  207. Forced                                   : No
  208. Text #3
  209. ID                                       : 11
  210. Format                                   : UTF-8
  211. Codec ID                                 : S_TEXT/UTF8
  212. Codec ID/Info                            : UTF-8 Plain Text
  213. Duration                                 : 1 h 48 min
  214. Bit rate                                 : 43 b/s
  215. Count of elements                        : 1525
  216. Stream size                              : 34.4 KiB (0%)
  217. Title                                    : English (United States)
  218. Language                                 : English
  219. Default                                  : No
  220. Forced                                   : No
  221. Text #4
  222. ID                                       : 12
  223. Format                                   : UTF-8
  224. Codec ID                                 : S_TEXT/UTF8
  225. Codec ID/Info                            : UTF-8 Plain Text
  226. Duration                                 : 1 h 41 min
  227. Bit rate                                 : 41 b/s
  228. Count of elements                        : 1058
  229. Stream size                              : 30.5 KiB (0%)
  230. Title                                    : English (United States)
  231. Language                                 : English
  232. Default                                  : No
  233. Forced                                   : No
  234. Text #5
  235. ID                                       : 13
  236. Format                                   : UTF-8
  237. Codec ID                                 : S_TEXT/UTF8
  238. Codec ID/Info                            : UTF-8 Plain Text
  239. Duration                                 : 1 h 48 min
  240. Bit rate                                 : 64 b/s
  241. Count of elements                        : 1068
  242. Stream size                              : 51.0 KiB (0%)
  243. Title                                    : ??????? (??????)
  244. Language                                 : Arabic
  245. Default                                  : No
  246. Forced                                   : No
  247. Text #6
  248. ID                                       : 14
  249. Format                                   : UTF-8
  250. Codec ID                                 : S_TEXT/UTF8
  251. Codec ID/Info                            : UTF-8 Plain Text
  252. Duration                                 : 1 h 41 min
  253. Bit rate                                 : 36 b/s
  254. Count of elements                        : 1092
  255. Stream size                              : 27.4 KiB (0%)
  256. Title                                    : ?e?tina (?esko)
  257. Language                                 : Czech
  258. Default                                  : No
  259. Forced                                   : No
  260. Text #7
  261. ID                                       : 15
  262. Format                                   : UTF-8
  263. Codec ID                                 : S_TEXT/UTF8
  264. Codec ID/Info                            : UTF-8 Plain Text
  265. Duration                                 : 1 h 48 min
  266. Bit rate                                 : 38 b/s
  267. Count of elements                        : 952
  268. Stream size                              : 30.6 KiB (0%)
  269. Title                                    : dansk (Danmark)
  270. Language                                 : Danish
  271. Default                                  : No
  272. Forced                                   : No
  273. Text #8
  274. ID                                       : 16
  275. Format                                   : UTF-8
  276. Codec ID                                 : S_TEXT/UTF8
  277. Codec ID/Info                            : UTF-8 Plain Text
  278. Duration                                 : 1 h 48 min
  279. Bit rate                                 : 40 b/s
  280. Count of elements                        : 1066
  281. Stream size                              : 32.4 KiB (0%)
  282. Title                                    : Deutsch (Deutschland)
  283. Language                                 : German
  284. Default                                  : No
  285. Forced                                   : No
  286. Text #9
  287. ID                                       : 17
  288. Format                                   : UTF-8
  289. Codec ID                                 : S_TEXT/UTF8
  290. Codec ID/Info                            : UTF-8 Plain Text
  291. Duration                                 : 1 h 41 min
  292. Bit rate                                 : 74 b/s
  293. Count of elements                        : 1038
  294. Stream size                              : 55.6 KiB (0%)
  295. Title                                    : Ελληνικ? (Ελλ?δα)
  296. Language                                 : Greek
  297. Default                                  : No
  298. Forced                                   : No
  299. Text #10
  300. ID                                       : 18
  301. Format                                   : UTF-8
  302. Codec ID                                 : S_TEXT/UTF8
  303. Codec ID/Info                            : UTF-8 Plain Text
  304. Duration                                 : 1 h 48 min
  305. Bit rate                                 : 39 b/s
  306. Count of elements                        : 1039
  307. Stream size                              : 31.6 KiB (0%)
  308. Title                                    : espa?ol (Latinoamérica)
  309. Language                                 : Spanish
  310. Default                                  : No
  311. Forced                                   : No
  312. Text #11
  313. ID                                       : 19
  314. Format                                   : UTF-8
  315. Codec ID                                 : S_TEXT/UTF8
  316. Codec ID/Info                            : UTF-8 Plain Text
  317. Duration                                 : 1 h 48 min
  318. Bit rate                                 : 38 b/s
  319. Count of elements                        : 1068
  320. Stream size                              : 30.4 KiB (0%)
  321. Title                                    : espa?ol (Espa?a)
  322. Language                                 : Spanish
  323. Default                                  : No
  324. Forced                                   : No
  325. Text #12
  326. ID                                       : 20
  327. Format                                   : UTF-8
  328. Codec ID                                 : S_TEXT/UTF8
  329. Codec ID/Info                            : UTF-8 Plain Text
  330. Duration                                 : 1 h 48 min
  331. Bit rate                                 : 30 b/s
  332. Count of elements                        : 926
  333. Stream size                              : 24.4 KiB (0%)
  334. Title                                    : suomi (Suomi)
  335. Language                                 : Finnish
  336. Default                                  : No
  337. Forced                                   : No
  338. Text #13
  339. ID                                       : 21
  340. Format                                   : UTF-8
  341. Codec ID                                 : S_TEXT/UTF8
  342. Codec ID/Info                            : UTF-8 Plain Text
  343. Duration                                 : 1 h 41 min
  344. Bit rate                                 : 47 b/s
  345. Count of elements                        : 1040
  346. Stream size                              : 35.2 KiB (0%)
  347. Title                                    : Filipino (Pilipinas)
  348. Language                                 : fil
  349. Default                                  : No
  350. Forced                                   : No
  351. Text #14
  352. ID                                       : 22
  353. Format                                   : UTF-8
  354. Codec ID                                 : S_TEXT/UTF8
  355. Codec ID/Info                            : UTF-8 Plain Text
  356. Duration                                 : 1 h 41 min
  357. Bit rate                                 : 43 b/s
  358. Count of elements                        : 1220
  359. Stream size                              : 32.5 KiB (0%)
  360. Title                                    : fran?ais (France)
  361. Language                                 : French
  362. Default                                  : No
  363. Forced                                   : No
  364. Text #15
  365. ID                                       : 23
  366. Format                                   : UTF-8
  367. Codec ID                                 : S_TEXT/UTF8
  368. Codec ID/Info                            : UTF-8 Plain Text
  369. Duration                                 : 1 h 41 min
  370. Bit rate                                 : 55 b/s
  371. Count of elements                        : 1150
  372. Stream size                              : 41.7 KiB (0%)
  373. Title                                    : ????? (?????)
  374. Language                                 : Hebrew
  375. Default                                  : No
  376. Forced                                   : No
  377. Text #16
  378. ID                                       : 24
  379. Format                                   : UTF-8
  380. Codec ID                                 : S_TEXT/UTF8
  381. Codec ID/Info                            : UTF-8 Plain Text
  382. Duration                                 : 1 h 48 min
  383. Bit rate                                 : 91 b/s
  384. Count of elements                        : 1068
  385. Stream size                              : 72.3 KiB (0%)
  386. Title                                    : ?????? (????)
  387. Language                                 : Hindi
  388. Default                                  : No
  389. Forced                                   : No
  390. Text #17
  391. ID                                       : 25
  392. Format                                   : UTF-8
  393. Codec ID                                 : S_TEXT/UTF8
  394. Codec ID/Info                            : UTF-8 Plain Text
  395. Duration                                 : 1 h 41 min
  396. Bit rate                                 : 36 b/s
  397. Count of elements                        : 1094
  398. Stream size                              : 27.6 KiB (0%)
  399. Title                                    : magyar (Magyarország)
  400. Language                                 : Hungarian
  401. Default                                  : No
  402. Forced                                   : No
  403. Text #18
  404. ID                                       : 26
  405. Format                                   : UTF-8
  406. Codec ID                                 : S_TEXT/UTF8
  407. Codec ID/Info                            : UTF-8 Plain Text
  408. Duration                                 : 1 h 41 min
  409. Bit rate                                 : 40 b/s
  410. Count of elements                        : 1148
  411. Stream size                              : 29.9 KiB (0%)
  412. Title                                    : bahasa Indonesia (Indonesia)
  413. Language                                 : Indonesian
  414. Default                                  : No
  415. Forced                                   : No
  416. Text #19
  417. ID                                       : 27
  418. Format                                   : UTF-8
  419. Codec ID                                 : S_TEXT/UTF8
  420. Codec ID/Info                            : UTF-8 Plain Text
  421. Duration                                 : 1 h 41 min
  422. Bit rate                                 : 44 b/s
  423. Count of elements                        : 1062
  424. Stream size                              : 33.4 KiB (0%)
  425. Title                                    : italiano (Italia)
  426. Language                                 : Italian
  427. Default                                  : No
  428. Forced                                   : No
  429. Text #20
  430. ID                                       : 28
  431. Format                                   : UTF-8
  432. Codec ID                                 : S_TEXT/UTF8
  433. Codec ID/Info                            : UTF-8 Plain Text
  434. Duration                                 : 1 h 48 min
  435. Bit rate                                 : 33 b/s
  436. Count of elements                        : 1113
  437. Stream size                              : 26.4 KiB (0%)
  438. Title                                    : 日本語 (日本)
  439. Language                                 : Japanese
  440. Default                                  : No
  441. Forced                                   : No
  442. Text #21
  443. ID                                       : 29
  444. Format                                   : UTF-8
  445. Codec ID                                 : S_TEXT/UTF8
  446. Codec ID/Info                            : UTF-8 Plain Text
  447. Duration                                 : 1 h 48 min
  448. Bit rate                                 : 33 b/s
  449. Count of elements                        : 1055
  450. Stream size                              : 26.8 KiB (0%)
  451. Title                                    : ??? (????)
  452. Language                                 : Korean
  453. Default                                  : No
  454. Forced                                   : No
  455. Text #22
  456. ID                                       : 30
  457. Format                                   : UTF-8
  458. Codec ID                                 : S_TEXT/UTF8
  459. Codec ID/Info                            : UTF-8 Plain Text
  460. Duration                                 : 1 h 41 min
  461. Bit rate                                 : 39 b/s
  462. Count of elements                        : 1039
  463. Stream size                              : 29.1 KiB (0%)
  464. Title                                    : bahasa Malaysia (Malaysia)
  465. Language                                 : Malay
  466. Default                                  : No
  467. Forced                                   : No
  468. Text #23
  469. ID                                       : 31
  470. Format                                   : UTF-8
  471. Codec ID                                 : S_TEXT/UTF8
  472. Codec ID/Info                            : UTF-8 Plain Text
  473. Duration                                 : 1 h 48 min
  474. Bit rate                                 : 37 b/s
  475. Count of elements                        : 1060
  476. Stream size                              : 29.6 KiB (0%)
  477. Title                                    : norsk bokm?l (Norge)
  478. Language                                 : Norwegian Bokmal
  479. Default                                  : No
  480. Forced                                   : No
  481. Text #24
  482. ID                                       : 32
  483. Format                                   : UTF-8
  484. Codec ID                                 : S_TEXT/UTF8
  485. Codec ID/Info                            : UTF-8 Plain Text
  486. Duration                                 : 1 h 48 min
  487. Bit rate                                 : 37 b/s
  488. Count of elements                        : 1065
  489. Stream size                              : 29.8 KiB (0%)
  490. Title                                    : Nederlands (Nederland)
  491. Language                                 : Dutch
  492. Default                                  : No
  493. Forced                                   : No
  494. Text #25
  495. ID                                       : 33
  496. Format                                   : UTF-8
  497. Codec ID                                 : S_TEXT/UTF8
  498. Codec ID/Info                            : UTF-8 Plain Text
  499. Duration                                 : 1 h 48 min
  500. Bit rate                                 : 34 b/s
  501. Count of elements                        : 907
  502. Stream size                              : 27.7 KiB (0%)
  503. Title                                    : polski (Polska)
  504. Language                                 : Polish
  505. Default                                  : No
  506. Forced                                   : No
  507. Text #26
  508. ID                                       : 34
  509. Format                                   : UTF-8
  510. Codec ID                                 : S_TEXT/UTF8
  511. Codec ID/Info                            : UTF-8 Plain Text
  512. Duration                                 : 1 h 48 min
  513. Bit rate                                 : 37 b/s
  514. Count of elements                        : 1055
  515. Stream size                              : 29.8 KiB (0%)
  516. Title                                    : português (Brasil)
  517. Language                                 : Portuguese
  518. Default                                  : No
  519. Forced                                   : No
  520. Text #27
  521. ID                                       : 35
  522. Format                                   : UTF-8
  523. Codec ID                                 : S_TEXT/UTF8
  524. Codec ID/Info                            : UTF-8 Plain Text
  525. Duration                                 : 1 h 48 min
  526. Bit rate                                 : 37 b/s
  527. Count of elements                        : 1068
  528. Stream size                              : 30.1 KiB (0%)
  529. Title                                    : português (Portugal)
  530. Language                                 : Portuguese
  531. Default                                  : No
  532. Forced                                   : No
  533. Text #28
  534. ID                                       : 36
  535. Format                                   : UTF-8
  536. Codec ID                                 : S_TEXT/UTF8
  537. Codec ID/Info                            : UTF-8 Plain Text
  538. Duration                                 : 1 h 41 min
  539. Bit rate                                 : 38 b/s
  540. Count of elements                        : 1048
  541. Stream size                              : 28.8 KiB (0%)
  542. Title                                    : roman? (Romania)
  543. Language                                 : Romanian
  544. Default                                  : No
  545. Forced                                   : No
  546. Text #29
  547. ID                                       : 37
  548. Format                                   : UTF-8
  549. Codec ID                                 : S_TEXT/UTF8
  550. Codec ID/Info                            : UTF-8 Plain Text
  551. Duration                                 : 1 h 48 min
  552. Bit rate                                 : 60 b/s
  553. Count of elements                        : 1068
  554. Stream size                              : 47.8 KiB (0%)
  555. Title                                    : русский (Россия)
  556. Language                                 : Russian
  557. Default                                  : No
  558. Forced                                   : No
  559. Text #30
  560. ID                                       : 38
  561. Format                                   : UTF-8
  562. Codec ID                                 : S_TEXT/UTF8
  563. Codec ID/Info                            : UTF-8 Plain Text
  564. Duration                                 : 1 h 48 min
  565. Bit rate                                 : 36 b/s
  566. Count of elements                        : 840
  567. Stream size                              : 28.7 KiB (0%)
  568. Title                                    : svenska (Sverige)
  569. Language                                 : Swedish
  570. Default                                  : No
  571. Forced                                   : No
  572. Text #31
  573. ID                                       : 39
  574. Format                                   : UTF-8
  575. Codec ID                                 : S_TEXT/UTF8
  576. Codec ID/Info                            : UTF-8 Plain Text
  577. Duration                                 : 1 h 41 min
  578. Bit rate                                 : 102 b/s
  579. Count of elements                        : 1044
  580. Stream size                              : 76.2 KiB (0%)
  581. Title                                    : ??? (???)
  582. Language                                 : Thai
  583. Default                                  : No
  584. Forced                                   : No
  585. Text #32
  586. ID                                       : 40
  587. Format                                   : UTF-8
  588. Codec ID                                 : S_TEXT/UTF8
  589. Codec ID/Info                            : UTF-8 Plain Text
  590. Duration                                 : 1 h 48 min
  591. Bit rate                                 : 42 b/s
  592. Count of elements                        : 1050
  593. Stream size                              : 33.4 KiB (0%)
  594. Title                                    : Türk?e (Türkiye)
  595. Language                                 : Turkish
  596. Default                                  : No
  597. Forced                                   : No
  598. Menu
  599. 00:00:00.000                             : en:Studio logos
  600. 00:00:52.000                             : en:Will's mother turns 50
  601. 00:03:45.000                             : en:Will heads to work at the factory
  602. 00:05:47.000                             : en:Will tries to help a rich drunk man
  603. 00:10:48.000                             : en:Henry Hamilton explains the cold logistics of immortality
  604. 00:16:55.000                             : en:Borel fears for Will's life
  605. 00:18:55.000                             : en:Rachel runs out of bus fare
  606. 00:22:14.000                             : en:Raymond decides to follow the time
  607. 00:23:30.000                             : en:Will pays the toll to enter New Greenwich
  608. 00:26:59.000                             : en:Raymond and his men try to predict Will's next move
  609. 00:27:42.000                             : en:Will gets advice about living with time
  610. 00:29:47.000                             : en:Will gambles with Philippe Weis
  611. 00:34:39.000                             : en:Will attends Philippe's soir茅e
  612. 00:38:12.000                             : en:Will takes Sylvia for a swim
  613. 00:40:24.000                             : en:The Timekeepers come for Will
  614. 00:45:12.000                             : en:Will puts his new car to the test
  615. 00:48:04.000                             : en:Sylvia learns the value of sharing
  616. 00:50:36.000                             : en:Will and Sylvia scramble for time
  617. 00:53:54.000                             : en:Will calls Raymond with demands
  618. 00:56:13.000                             : en:Sylvia learns about Will's life
  619. 01:00:24.000                             : en:Will and Sylvia watch the Mission open as usual
  620. 01:05:40.000                             : en:Will and Syliva pull over a car
  621. 01:07:25.000                             : en:Will and Sylvia watch the news
  622. 01:08:54.000                             : en:Philippe tries to bargain with Raymond
  623. 01:11:18.000                             : en:Will and Sylvia steal time for the people
  624. 01:15:04.000                             : en:Raymond issues a reward of 10 years for Will and Sylvia
  625. 01:16:47.000                             : en:Raymond tracks the fugitives to a seedy motel
  626. 01:20:19.000                             : en:Will and Sylvia upgrade hotels
  627. 01:22:43.000                             : en:Fortis pays a visit
  628. 01:27:15.000                             : en:Raymond, Will, and Sylvia try to plan their next moves
  629. 01:29:21.000                             : en:Will and Sylvia attempt a great time heist
  630. 01:33:24.000                             : en:Will tries to escape with a million years
  631. 01:37:15.000                             : en:Raymond catches up with Will and Sylvia
  632. 01:41:08.000                             : en:The system heads for collapse
  633. 01:42:54.000                             : en:End credits
复制代码

















保举请利用qBittorrent,utorrent,transmission等标准BT软件下载!以获得最快速度。奉求保种!





回复

使用道具 举报

懒得打字嘛,点击右侧快捷回复 【右侧内容,后台自定义】
您需要登录后才可以回帖 登录 | 立即加入

本版积分规则

Archiver|小黑屋| 蓝光电影网 |网站地图

Copyright © 2021 Comsenz Inc. Powered by 蓝光电影网

蓝光电影网

本站内容由用户自主分享和转载自互联网,转载目的在于传递更多信息,并不代表本网赞同其观点和对其真实性负责。

如有侵权、违反国家法律政策行为,请联系我们,我们会第一时间及时清除和处理!

举报反馈邮箱:[email protected]

快速回复 返回顶部 返回列表