找回密码

蓝光电影网

查看: 56|回复: 0

[剧情] 拒绝再战[简繁英双语字幕].Stop-Loss.2008.BluRay.1080p.DTS-HD.MA5.1.x265.10bit-ALT 11.32GB

[复制链接]
蓝光币
7
发表于 2022-7-31 01:58:14 | 显示全部楼层 |阅读模式


◎标  题 拒绝再战
◎译  名 止损 / 强迫返征 / 停止损失
◎片  名 Stop-Loss
◎年  代 2008
◎产  地 美国
◎类  别 剧情 / 战争
◎语  言 英语
◎上映日期 2008-03-28
◎IMDb评分 6.4/10 (20189人评价)
◎IMDb链接 https://www.imdb.com/title/tt0489281/
◎豆瓣链接 https://movie.douban.com/subject/1951113/
◎片  长 112 分钟
◎标  签 战争 / 美国 / 反战 / JosephGordon-Levitt / 美国电影 / 剧情 / ChanningTatum / 2008
◎简  介
    备受期待的伊战影片《止损》由三位人气男星莱恩·菲利普、查宁·塔图姆、约瑟夫·高登·莱维特主演。                                                                      片名“stop-loss”(止损)原本是金融外汇范畴常见的词语,大致指投资失误时想法把损失限制在较小范围内的一种行为。越战以后这个词被美国政府加以操纵,“stop-loss procedure”(止损法式)是指军方在其认定的告急情况下,逼迫已经实行终了退役时代的使命大概有条件退休的兵士耽误退役时候的一种行为。按照一项估量,这一备受争议的政策使得大要有7000名原定可以返国的美军兵士被迫滞留在伊拉克。                                                                      片中由莱恩·菲利普饰演的布兰登·金中士带着声誉回到了故乡小城并筹算重建自己的生活,可是军方在止损法式下强行要求他立即回到伊拉克继续退役,不得已之下布兰登起头了亡命天涯的旅程,回避一个他原本不惜生命去庇护的国家的所谓“正义”。
  1. ##### MediaInfo ######
  2. General
  3. Unique ID                                : 171397213112616304792907923529939150423 (0x80F1E70B0397C83C16C9C6F4409DE657)
  4. Complete name                            : Stop-Loss.2008.BluRay.1080p.DTS-HD.MA5.1.x265.10bit-ALT.mkv
  5. Format                                   : Matroska
  6. Format version                           : Version 4
  7. File size                                : 11.3 GiB
  8. Duration                                 : 1 h 52 min
  9. Overall bit rate mode                    : Variable
  10. Overall bit rate                         : 14.5 Mb/s
  11. Encoded date                             : UTC 2022-01-11 11:16:42
  12. Writing application                      : mkvmerge v49.0.0 ('Sick Of Losing Soulmates') 64-bit
  13. Writing library                          : libebml v1.4.0 + libmatroska v1.6.1
  14. Video
  15. ID                                       : 1
  16. Format                                   : HEVC
  17. Format/Info                              : High Efficiency Video Coding
  18. Format profile                           : Main [email protected]@High
  19. Codec ID                                 : V_MPEGH/ISO/HEVC
  20. Duration                                 : 1 h 52 min
  21. Bit rate                                 : 10.0 Mb/s
  22. Width                                    : 1 920 pixels
  23. Height                                   : 1 080 pixels
  24. Display aspect ratio                     : 16:9
  25. Frame rate mode                          : Constant
  26. Frame rate                               : 23.976 (24000/1001/53875) FPS
  27. Color space                              : YUV
  28. Chroma subsampling                       : 4:2:0
  29. Bit depth                                : 10 bits
  30. Bits/(Pixel*Frame)                       : 0.201
  31. Stream size                              : 7.83 GiB (69%)
  32. Title                                    : HEVC, [email protected]@High, 24/1.001 fps @ 10002 kbps
  33. Writing library                          : x265 3.4+14-gd419c7152:[Windows][GCC 10.2.0][64 bit] 10bit
  34. Encoding settings                        : cpuid=538751111039 / frame-threads=4 / numa-pools=16 / wpp / pmode / pme / no-psnr / no-ssim / log-level=2 / input-csp=1 / input-res=1920x1080 / interlace=0 / total-frames=161186 / level-idc=51 / high-tier=1 / uhd-bd=0 / ref=5 / no-allow-non-conformance / no-repeat-headers / annexb / no-aud / no-hrd / info / hash=0 / no-temporal-layers / open-gop / min-keyint=24 / keyint=240 / gop-lookahead=0 / bframes=6 / b-adapt=2 / b-pyramid / bframe-bias=0 / rc-lookahead=40 / lookahead-slices=0 / NTM4NzU=uuDQuD2mJt9fsCf / scenecut=40 / hist-scenecut=0 / radl=0 / no-splice / no-intra-refresh / ctu=32 / min-cu-size=8 / no-rect / no-amp / max-tu-size=32 / tu-inter-depth=3 / tu-intra-depth=3 / limit-tu=4 / rdoq-level=2 / dynamic-rd=0.00 / no-ssim-rd / signhide / no-tskip / nr-intra=0 / nr-inter=0 / no-constrained-intra / no-strong-intra-smoothing / max-merge=4 / limit-refs=1 / limit-modes / me=3 / subme=4 / merange=25 / temporal-mvp / no-frame-dup / no-hme / weightp / weightb / no-analyze-src-pics / deblock=-3:-3 / no-sao / no-sao-non-deblock / rd=6 / selective-sao=0 / no-early-skip / rskip / no-fast-intra / no-tskip-fast / no-cu-lossless / b-intra / no-splitrd-skip / rdpenalty=0 / psy-rd=2.00 / psy-rdoq=1.00 / no-rd-refine / no-lossless / cbqpoffs=0 / crqpoffs=0 / rc=crf / crf=19.5 / qcomp=0.65 / qpstep=4 / stats-write=0 / stats-read=0 / vbv-maxrate=80000 / vbv-bufsize=80000 / vbv-init=0.9 / crf-max=0.0 / crf-min=0.0 / ipratio=1.40 / pbratio=1.30 / aq-mode=2 / aq-strength=0.85 / cutree / zone-count=0 / no-strict-cbr / qg-size=32 / no-rc-grain / qpmax=69 / qpmin=0 / no-const-vbv / sar=1 / overscan=0 / videoformat=5 / range=0 / colorprim=1 / transfer=1 / colormatrix=1 / chromaloc=0 / display-window=0 / cll=0,0 / min-luma=0 / max-luma=1023 / log2-max-poc-lsb=8 / vui-timing-info / vui-hrd-info / slices=1 / no-opt-qp-pps / no-opt-ref-list-length-pps / no-multi-pass-opt-rps / scenecut-bias=0.05 / hist-threshold=0.03 / no-opt-cu-delta-qp / no-aq-motion / no-hdr10 / no-hdr10-opt / no-dhdr10-opt / no-idr-recovery-sei / analysis-reuse-level=0 / analysis-save-reuse-level=0 / analysis-load-reuse-level=0 / scale-factor=0 / refine-intra=0 / refine-inter=0 / refine-mv=1 / refine-ctu-distortion=0 / no-limit-sao / ctu-info=0 / no-lowpass-dct / refine-analysis-type=0 / copy-pic=1 / max-ausize-factor=1.0 / no-dynamic-refine / no-single-sei / no-hevc-aq / no-svt / no-field / qp-adaptation-range=1.00 / no-scenecut-aware-qpconformance-window-offsets / right=0 / bottom=0 / NTM4NzU= / decoder-max-rate=0
  35. Language                                 : English
  36. Default                                  : Yes
  37. Forced                                   : No
  38. Color range                              : Limited
  39. Color primaries                          : BT.709
  40. Transfer characteristics                 : BT.709
  41. Matrix coefficients                      : BT.709
  42. Audio #1
  43. ID                                       : 2
  44. Format                                   : DTS XLL
  45. Format/Info                              : Digital Theater Systems
  46. Commercial name                          : DTS-HD Master Audio
  47. Codec ID                                 : A_DTS
  48. Duration                                 : 1 h 52 min
  49. Bit rate mode                            : Variable
  50. Bit rate                                 : 3 915 kb/s
  51. Channel(s)                               : 6 channels
  52. Channel layout                           : C L R Ls Rs LFE
  53. Sampling rate                            : 48.0 kHz
  54. Frame rate                               : 93.750 FPS (512 SPF)
  55. Bit depth                                : 24 bits
  56. Compression mode                         : Lossless
  57. Stream size                              : 3.06 GiB (27%)
  58. Title                                    : English DTS-HD Master Audio 5.1 @ 3916 kbps
  59. Language                                 : English
  60. Default                                  : Yes
  61. Forced                                   : No
  62. Audio #2
  63. ID                                       : 3
  64. Format                                   : AC-3
  65. Format/Info                              : Audio Coding 3
  66. Commercial name                          : Dolby Digital
  67. Codec ID                                 : A_AC3
  68. Duration                                 : 1 h 52 min
  69. Bit rate mode                            : Constant
  70. Bit rate                                 : 224 kb/s
  71. Channel(s)                               : 2 channels
  72. Channel layout                           : L R
  73. Sampling rate                            : 48.0 kHz
  74. Frame rate                               : 31.250 FPS (1536 SPF)
  75. Compression mode                         : Lossy
  76. Stream size                              : 180 MiB (2%)
  77. Title                                    : English Dolby Digital Audio 2.0 @ 224 kbps  Commentary
  78. Language                                 : English
  79. Service kind                             : Complete Main
  80. Default                                  : No
  81. Forced                                   : No
  82. Text #1
  83. ID                                       : 4
  84. Format                                   : PGS
  85. Codec ID                                 : S_HDMV/PGS
  86. Codec ID/Info                            : Picture based subtitle format used on BDs/HD-DVDs
  87. Duration                                 : 1 h 51 min
  88. Bit rate                                 : 28.8 kb/s
  89. Count of elements                        : 2536
  90. Stream size                              : 22.9 MiB (0%)
  91. Title                                    : Eng/SUP
  92. Language                                 : English
  93. Default                                  : No
  94. Forced                                   : No
  95. Text #2
  96. ID                                       : 5
  97. Format                                   : PGS
  98. Codec ID                                 : S_HDMV/PGS
  99. Codec ID/Info                            : Picture based subtitle format used on BDs/HD-DVDs
  100. Duration                                 : 1 h 51 min
  101. Bit rate                                 : 141 kb/s
  102. Count of elements                        : 9250
  103. Stream size                              : 113 MiB (1%)
  104. Title                                    : Chs/SUP  简英双语
  105. Language                                 : Chinese
  106. Default                                  : Yes
  107. Forced                                   : No
  108. Text #3
  109. ID                                       : 6
  110. Format                                   : PGS
  111. Codec ID                                 : S_HDMV/PGS
  112. Codec ID/Info                            : Picture based subtitle format used on BDs/HD-DVDs
  113. Duration                                 : 1 h 51 min
  114. Bit rate                                 : 148 kb/s
  115. Count of elements                        : 9250
  116. Stream size                              : 118 MiB (1%)
  117. Title                                    : Cht/SUP  繁英双语
  118. Language                                 : Chinese
  119. Default                                  : No
  120. Forced                                   : No
  121. Menu
  122. 00:00:00.000                             : en:第 01 章
  123. 00:07:02.922                             : en:第 02 章
  124. 00:13:36.065                             : en:第 03 章
  125. 00:20:42.575                             : en:第 04 章
  126. 00:27:40.284                             : en:第 05 章
  127. 00:34:12.592                             : en:第 06 章
  128. 00:40:21.919                             : en:第 07 章
  129. 00:46:35.292                             : en:第 08 章
  130. 00:52:59.385                             : en:第 09 章
  131. 01:00:31.378                             : en:第 10 章
  132. 01:07:17.450                             : en:第 11 章
  133. 01:14:34.136                             : en:第 12 章
  134. 01:21:04.818                             : en:第 13 章
  135. 01:27:45.051                             : en:第 14 章
  136. 01:33:18.635                             : en:第 15 章
  137. 01:38:06.339                             : en:第 16 章
  138. 01:44:47.948                             : en:第 17 章
复制代码

















保举请利用qBittorrent,utorrent,transmission等标准BT软件下载!以获得最快速度。奉求保种!





回复

使用道具 举报

懒得打字嘛,点击右侧快捷回复 【右侧内容,后台自定义】
您需要登录后才可以回帖 登录 | 立即加入

本版积分规则

Archiver|小黑屋| 蓝光电影网 |网站地图

Copyright © 2021 Comsenz Inc. Powered by 蓝光电影网

蓝光电影网

本站内容由用户自主分享和转载自互联网,转载目的在于传递更多信息,并不代表本网赞同其观点和对其真实性负责。

如有侵权、违反国家法律政策行为,请联系我们,我们会第一时间及时清除和处理!

举报反馈邮箱:[email protected]

快速回复 返回顶部 返回列表