找回密码

蓝光电影网

查看: 135|回复: 2

[剧情] 军情五处:利益之争[简繁英双语字幕].Spooks.The.Greater.Good.2015.BluRay.1080p.DTS-HD.MA5.1.x265.10bit-ALT 7.07GB

[复制链接]
蓝光币
8
发表于 2022-7-31 01:58:20 | 显示全部楼层 |阅读模式


◎标  题 军情五处:好处之争
◎译  名 军情五处电影版
◎片  名 Spooks: The Greater Good
◎年  代 2015
◎产  地 英国
◎类  别 剧情 / 行动 / 惊悚
◎语  言 英语
◎上映日期 2015-05-08(英国)
◎IMDb评分 6.2/10 (22577人评价)
◎IMDb链接 https://www.imdb.com/title/tt3321300/
◎豆瓣评分 6.1/10 (3253人评价)
◎豆瓣链接 https://movie.douban.com/subject/25762402/
◎片  长 104分钟
◎导  演 贝瑞特·奈鲁利 Bharat Nalluri
◎演  员 基特·哈灵顿 Kit Harington
       彼得·弗斯 Peter Firth
       伊莱耶斯·加贝尔 Elyes Gabel
       詹妮弗·艾莉 Jennifer Ehle
       塔彭丝·米德尔顿 Tuppence Middleton
       大卫·哈雷伍德 David Harewood
       劳拉·普沃 Lara Pulver
       蒂姆·麦克纳尼 Tim McInnerny
       埃莉诺·松浦 Eleanor Matsuura
       罗南·萨莫尔斯 Ronan Summers
       拉斯科·阿特金斯 Lasco Atkins
       迈克尔·怀德曼 Michael Wildman
       格拉姆·柯里 Graham Curry
       尼克斯·普尔索尼迪斯 Nikos Poursanidis
       Laura Swift Laura Swift
       艾略特·利维 Elliot Levey
       多米尼克·刘易斯 Dominic Lewis
       安德鲁·门若 Andrew Munro
       Colleen Kelsall Colleen Kelsall
◎简  介
  本片为英剧《军情五处》电影版,也是这一系列剧的大终局。曾参演该剧第十季的Lara Pulver回归继续饰演Erin Watts.:当一个可骇份子在一次常规交接中逃走,Will Crombie(由《权利的游戏》中饰演Jon Snow的Kit Harington饰演)必须与MI5遭贬低的情报主座Harry Pearce(Peter Firth回归)合作,在行将到来的伦敦可骇攻击之前追踪到可骇份子。                                    
                                非官方剧透:Harry Pearce在追踪进程中也消失了。今朝演员内外第十季原班人马并没有全数回归,猜测Erin Watts应当在追捕行动中起到一定感化。该片于2015年上映。
  1. ##### MediaInfo ######
  2. General
  3. Unique ID                                : 154980065240954272611480873852447464966 (0x74981328EA40BF70C3C79A435C939E06)
  4. Complete name                            : Spooks.The.Greater.Good.2015.BluRay.1080p.DTS-HD.MA5.1.x265.10bit-ALT.mkv
  5. Format                                   : Matroska
  6. Format version                           : Version 4
  7. File size                                : 7.07 GiB
  8. Duration                                 : 1 h 43 min
  9. Overall bit rate mode                    : Variable
  10. Overall bit rate                         : 9 746 kb/s
  11. Encoded date                             : UTC 2022-01-29 11:27:26
  12. Writing application                      : mkvmerge v49.0.0 ('Sick Of Losing Soulmates') 64-bit
  13. Writing library                          : libebml v1.4.0 + libmatroska v1.6.1
  14. Video
  15. ID                                       : 1
  16. Format                                   : HEVC
  17. Format/Info                              : High Efficiency Video Coding
  18. Format profile                           : Main [email protected]@High
  19. Codec ID                                 : V_MPEGH/ISO/HEVC
  20. Duration                                 : 1 h 43 min
  21. Bit rate                                 : 6 053 kb/s
  22. Width                                    : 1 920 pixels
  23. Height                                   : 802 pixels
  24. Display aspect ratio                     : 2.40:1
  25. Frame rate mode                          : Constant
  26. Frame rate                               : 24.000 FPS
  27. Color space                              : YUV
  28. Chroma subsampling                       : 4:2:0
  29. Bit depth                                : 10 bits
  30. Bits/(Pixel*Frame)                       : 0.164
  31. Stream size                              : 4.39 GiB (62%)
  32. Title                                    : HEVC, [email protected]@High, 24 fps @ 6052 kbps
  33. Writing library                          : x265 3.4+14-gd419c7152:[Windows][GCC 10.2.0][64 bit] 10bit
  34. Encoding settings                        : cpuid=538751049583 / frame-threads=2 / numa-pools=4 / wpp / pmode / pme / no-psnr / no-ssim / log-level=2 / input-csp=1 / input-res=1920x802 / interlace=0 / total-frames=149554 / level-idc=51 / high-tier=1 / uhd-bd=0 / ref=5 / no-allow-non-conformance / no-repeat-headers / annexb / no-aud / no-hrd / info / hash=0 / no-temporal-layers / open-gop / min-keyint=24 / keyint=240 / gop-lookahead=0 / bframes=6 / b-adapt=2 / b-pyramid / bframe-bias=0 / rc-lookahead=40 / lookahead-slices=0 / NTM4NzU=uuDQuD2mJt9fsCf / scenecut=40 / hist-scenecut=0 / radl=0 / no-splice / no-intra-refresh / ctu=32 / min-cu-size=8 / no-rect / no-amp / max-tu-size=32 / tu-inter-depth=3 / tu-intra-depth=3 / limit-tu=4 / rdoq-level=2 / dynamic-rd=0.00 / no-ssim-rd / signhide / no-tskip / nr-intra=0 / nr-inter=0 / no-constrained-intra / no-strong-intra-smoothing / max-merge=4 / limit-refs=1 / limit-modes / me=3 / subme=4 / merange=25 / temporal-mvp / no-frame-dup / no-hme / weightp / weightb / no-analyze-src-pics / deblock=-3:-3 / no-sao / no-sao-non-deblock / rd=6 / selective-sao=0 / no-early-skip / rskip / no-fast-intra / no-tskip-fast / no-cu-lossless / b-intra / no-splitrd-skip / rdpenalty=0 / psy-rd=2.00 / psy-rdoq=1.00 / no-rd-refine / no-lossless / cbqpoffs=0 / crqpoffs=0 / rc=crf / crf=17.0 / qcomp=0.65 / qpstep=4 / stats-write=0 / stats-read=0 / vbv-maxrate=80000 / vbv-bufsize=80000 / vbv-init=0.9 / crf-max=0.0 / crf-min=0.0 / ipratio=1.40 / pbratio=1.30 / aq-mode=2 / aq-strength=0.85 / cutree / zone-count=0 / no-strict-cbr / qg-size=32 / no-rc-grain / qpmax=69 / qpmin=0 / no-const-vbv / sar=1 / overscan=0 / videoformat=5 / range=0 / colorprim=1 / transfer=1 / colormatrix=1 / chromaloc=0 / display-window=0 / cll=0,0 / min-luma=0 / max-luma=1023 / log2-max-poc-lsb=8 / vui-timing-info / vui-hrd-info / slices=1 / no-opt-qp-pps / no-opt-ref-list-length-pps / no-multi-pass-opt-rps / scenecut-bias=0.05 / hist-threshold=0.03 / no-opt-cu-delta-qp / no-aq-motion / no-hdr10 / no-hdr10-opt / no-dhdr10-opt / no-idr-recovery-sei / analysis-reuse-level=0 / analysis-save-reuse-level=0 / analysis-load-reuse-level=0 / scale-factor=0 / refine-intra=0 / refine-inter=0 / refine-mv=1 / refine-ctu-distortion=0 / no-limit-sao / ctu-info=0 / no-lowpass-dct / refine-analysis-type=0 / copy-pic=1 / max-ausize-factor=1.0 / no-dynamic-refine / no-single-sei / no-hevc-aq / no-svt / no-field / qp-adaptation-range=1.00 / no-scenecut-aware-qpconformance-window-offsets / right=0 / bottom=0 / NTM4NzU= / decoder-max-rate=0
  35. Language                                 : English
  36. Default                                  : Yes
  37. Forced                                   : No
  38. Color range                              : Limited
  39. Color primaries                          : BT.709
  40. Transfer characteristics                 : BT.709
  41. Matrix coefficients                      : BT.709
  42. Audio
  43. ID                                       : 2
  44. Format                                   : DTS XLL
  45. Format/Info                              : Digital Theater Systems
  46. Commercial name                          : DTS-HD Master Audio
  47. Codec ID                                 : A_DTS
  48. Duration                                 : 1 h 43 min
  49. Bit rate mode                            : Variable
  50. Bit rate                                 : 3 505 kb/s
  51. Channel(s)                               : 6 channels
  52. Channel layout                           : C L R Ls Rs LFE
  53. Sampling rate                            : 48.0 kHz
  54. Frame rate                               : 93.750 FPS (512 SPF)
  55. Bit depth                                : 24 bits
  56. Compression mode                         : Lossless
  57. Stream size                              : 2.54 GiB (36%)
  58. Title                                    : English DTS-HD Master Audio 5.1 @ 3505 kbps
  59. Language                                 : English
  60. Default                                  : Yes
  61. Forced                                   : No
  62. Text #1
  63. ID                                       : 3
  64. Format                                   : PGS
  65. Codec ID                                 : S_HDMV/PGS
  66. Codec ID/Info                            : Picture based subtitle format used on BDs/HD-DVDs
  67. Duration                                 : 1 h 38 min
  68. Bit rate                                 : 33.9 kb/s
  69. Count of elements                        : 1898
  70. Stream size                              : 23.8 MiB (0%)
  71. Title                                    : Eng/SUP
  72. Language                                 : English
  73. Default                                  : No
  74. Forced                                   : No
  75. Text #2
  76. ID                                       : 4
  77. Format                                   : PGS
  78. Codec ID                                 : S_HDMV/PGS
  79. Codec ID/Info                            : Picture based subtitle format used on BDs/HD-DVDs
  80. Duration                                 : 1 h 38 min
  81. Bit rate                                 : 30.2 kb/s
  82. Count of elements                        : 1799
  83. Stream size                              : 21.2 MiB (0%)
  84. Title                                    : Chs/SUP  简体
  85. Language                                 : Chinese
  86. Default                                  : Yes
  87. Forced                                   : No
  88. Text #3
  89. ID                                       : 5
  90. Format                                   : PGS
  91. Codec ID                                 : S_HDMV/PGS
  92. Codec ID/Info                            : Picture based subtitle format used on BDs/HD-DVDs
  93. Duration                                 : 1 h 38 min
  94. Bit rate                                 : 30.8 kb/s
  95. Count of elements                        : 1799
  96. Stream size                              : 21.7 MiB (0%)
  97. Title                                    : Cht/SUP  繁体
  98. Language                                 : Chinese
  99. Default                                  : No
  100. Forced                                   : No
  101. Text #4
  102. ID                                       : 6
  103. Format                                   : PGS
  104. Codec ID                                 : S_HDMV/PGS
  105. Codec ID/Info                            : Picture based subtitle format used on BDs/HD-DVDs
  106. Duration                                 : 1 h 38 min
  107. Bit rate                                 : 50.1 kb/s
  108. Count of elements                        : 1799
  109. Stream size                              : 35.3 MiB (0%)
  110. Title                                    : Chs/SUP  简英双语
  111. Language                                 : Chinese
  112. Default                                  : No
  113. Forced                                   : No
  114. Text #5
  115. ID                                       : 7
  116. Format                                   : PGS
  117. Codec ID                                 : S_HDMV/PGS
  118. Codec ID/Info                            : Picture based subtitle format used on BDs/HD-DVDs
  119. Duration                                 : 1 h 38 min
  120. Bit rate                                 : 50.7 kb/s
  121. Count of elements                        : 1799
  122. Stream size                              : 35.7 MiB (0%)
  123. Title                                    : Cht/SUP  繁英双语
  124. Language                                 : Chinese
  125. Default                                  : No
  126. Forced                                   : No
  127. Menu
  128. 00:00:00.000                             : en:绗?01 绔?
  129. 00:08:47.125                             : en:绗?02 绔?
  130. 00:14:48.125                             : en:绗?03 绔?
  131. 00:19:14.167                             : en:绗?04 绔?
  132. 00:24:09.542                             : en:绗?05 绔?
  133. 00:29:50.917                             : en:绗?06 绔?
  134. 00:37:11.917                             : en:绗?07 绔?
  135. 00:44:02.125                             : en:绗?08 绔?
  136. 00:49:18.875                             : en:绗?09 绔?
  137. 00:55:39.542                             : en:绗?10 绔?
  138. 01:00:13.292                             : en:绗?11 绔?
  139. 01:08:13.958                             : en:绗?12 绔?
  140. 01:12:45.250                             : en:绗?13 绔?
  141. 01:20:58.833                             : en:绗?14 绔?
  142. 01:33:41.625                             : en:绗?15 绔?
  143. 01:39:46.625                             : en:绗?16 绔?
复制代码

















保举请利用qBittorrent,utorrent,transmission等标准BT软件下载!以获得最快速度。奉求保种!





回复

使用道具 举报

蓝光币
583
发表于 2022-7-31 18:48:57 | 显示全部楼层
谢谢分享!!!!
回复

使用道具 举报

蓝光币
67
发表于 2022-8-8 13:23:17 | 显示全部楼层

楼主太厉害了!楼主,电影应该很好看我觉得蓝光电影网真是个好地方!
回复 支持 反对

使用道具 举报

懒得打字嘛,点击右侧快捷回复 【右侧内容,后台自定义】
您需要登录后才可以回帖 登录 | 立即加入

本版积分规则

Archiver|小黑屋| 蓝光电影网 |网站地图

Copyright © 2021 Comsenz Inc. Powered by 蓝光电影网

蓝光电影网

本站内容由用户自主分享和转载自互联网,转载目的在于传递更多信息,并不代表本网赞同其观点和对其真实性负责。

如有侵权、违反国家法律政策行为,请联系我们,我们会第一时间及时清除和处理!

举报反馈邮箱:[email protected]

快速回复 返回顶部 返回列表