找回密码

蓝光电影网

查看: 52|回复: 0

[剧情] 分裂[简繁英字幕].Split.2016.BluRay.1080p.DTS-HD.MA5.1.x265.10bit-ALT 6.47GB

[复制链接]
蓝光币
7
发表于 2022-7-31 01:58:26 | 显示全部楼层 |阅读模式


◎标  题 割裂
◎译  名 思·裂(港)
◎片  名 Split
◎年  代 2016
◎产  地 美国
◎类  别 悬疑 / 惊悚 / 犯罪
◎语  言 英语
◎上映日期 2016-12-26(奇异电影节) / 2017-01-20(美国)
◎IMDb评分 7.3/10 (460730人评价)
◎IMDb链接 https://www.imdb.com/title/tt4972582/
◎豆瓣评分 7.4/10 (113136人评价)
◎豆瓣链接 https://movie.douban.com/subject/26600660/
◎片  长 117分钟
◎导  演 M·奈特·沙马兰 M. Night Shyamalan
◎编  剧 M·奈特·沙马兰 M. Night Shyamalan
◎演  员 詹姆斯·麦卡沃伊 James McAvoy
       安雅·泰勒-乔伊 Anya Taylor-Joy
       贝蒂·巴克利 Betty Buckley
       海莉·露·理查森 Haley Lu Richardson
       杰西卡·苏拉 Jessica Sula
       丽兹·科菲 Izzie Coffey
       布拉德·威廉姆·亨克 Brad William Henke
       塞巴斯蒂安·阿塞勒斯 Sebastian Arcelus
       尼尔·哈夫 Neal Huff
       尤基·华盛顿 Ukee Washington
       M·奈特·沙马兰 M. Night Shyamalan
       罗丝玛丽·霍华德 Rosemary Howard
       琳·勒内 Lyne Renee
       布鲁斯·威南特 Bruce Winant
       罗伯特·比齐克 Robert Bizik
       玛丽亚·布雷曼 Maria Breyman
       杰夫·巴克纳 Jeff Buckner
       大卫·尼尔里姆 David Kneeream
       金·迪莱克特 Kim Director
       老约翰·吉拉德 John Jillard Sr.
       迈克尔·J·克雷西克 Michael J. Kraycik
       乔恩·道格拉斯·雷尼 Jon Douglas Rainey
       莎伊娜·瑞恩 Shayna Ryan
       布鲁斯·威利斯 Bruce Willis
       斯特林·K·布朗 Sterling K. Brown
       尼果兹·简·安亚乌 Ngozi Jane Anyanwu
◎标  签 多重品德 / 惊悚 / 悬疑 / 品德割裂 / 心理 / 美国 / 精神割裂 / 犯罪
◎简  介
    凯西(安雅·泰勒-乔伊 Anya Taylor-Joy 饰)是一个显得和同龄品德格不入的怪女孩,某日,她和同学克莱尔(海莉·路·理查森 Haley Lu Richardson 饰)、玛西亚(杰西卡·苏拉 Jessica Sula 饰)一路预备坐车回家,哪晓得遭到了一奥秘男人的攻击和绑架,三人被软禁在昏暗阴冷的地下室中,面临着未知的凶恶命运。                                                                      绑架三个女孩的,是一个名叫凯文(詹姆斯·麦卡沃伊 James McAvoy 饰)的汉子,现实上,他是一位多重品德患者,安排着他的身材的品德,竟有23种之多。弗莱彻(贝蒂·巴克利 Betty Buckley 饰)是凯文的主治医生,她发现,凯文体内的品德之间发生了分歧,更糟糕的是,第24种品德正在渐渐构成,这小我格强健、邪恶、残暴,一旦他获得了凯文身材的主导权,不但三个女孩要遭殃,就连凯文自己都将人命不保。
  1. ##### MediaInfo ######
  2. General
  3. Unique ID                                : 7945730728628090241904586238275302645 (0x5FA4AC55D17FFA4087D0E8C267F34F5)
  4. Complete name                            : Split.2016.BluRay.1080p.DTS-HD.MA5.1.x265.10bit-ALT.mkv
  5. Format                                   : Matroska
  6. Format version                           : Version 4
  7. File size                                : 6.46 GiB
  8. Duration                                 : 1 h 57 min
  9. Overall bit rate mode                    : Variable
  10. Overall bit rate                         : 7 901 kb/s
  11. Encoded date                             : UTC 2022-02-07 16:49:26
  12. Writing application                      : mkvmerge v49.0.0 ('Sick Of Losing Soulmates') 64-bit
  13. Writing library                          : libebml v1.4.0 + libmatroska v1.6.1
  14. Video
  15. ID                                       : 1
  16. Format                                   : HEVC
  17. Format/Info                              : High Efficiency Video Coding
  18. Format profile                           : Main [email protected]@High
  19. Codec ID                                 : V_MPEGH/ISO/HEVC
  20. Duration                                 : 1 h 57 min
  21. Bit rate                                 : 4 389 kb/s
  22. Width                                    : 1 920 pixels
  23. Height                                   : 804 pixels
  24. Display aspect ratio                     : 2.40:1
  25. Frame rate mode                          : Constant
  26. Frame rate                               : 23.976 (24000/1001/53875) FPS
  27. Color space                              : YUV
  28. Chroma subsampling                       : 4:2:0
  29. Bit depth                                : 10 bits
  30. Bits/(Pixel*Frame)                       : 0.119
  31. Stream size                              : 3.59 GiB (56%)
  32. Title                                    : HEVC, [email protected]@High, 24/1.001 fps @ 4389 kbps
  33. Writing library                          : x265 3.4+14-gd419c7152:[Windows][GCC 10.2.0][64 bit] 10bit
  34. Encoding settings                        : cpuid=538751049583 / frame-threads=2 / numa-pools=4 / wpp / pmode / pme / no-psnr / no-ssim / log-level=2 / input-csp=1 / input-res=1920x804 / interlace=0 / total-frames=168500 / level-idc=51 / high-tier=1 / uhd-bd=0 / ref=5 / no-allow-non-conformance / no-repeat-headers / annexb / no-aud / no-hrd / info / hash=0 / no-temporal-layers / open-gop / min-keyint=24 / keyint=240 / gop-lookahead=0 / bframes=6 / b-adapt=2 / b-pyramid / bframe-bias=0 / rc-lookahead=40 / lookahead-slices=0 / NTM4NzU=uuDQuD2mJt9fsCf / scenecut=40 / hist-scenecut=0 / radl=0 / no-splice / no-intra-refresh / ctu=32 / min-cu-size=8 / no-rect / no-amp / max-tu-size=32 / tu-inter-depth=3 / tu-intra-depth=3 / limit-tu=4 / rdoq-level=2 / dynamic-rd=0.00 / no-ssim-rd / signhide / no-tskip / nr-intra=0 / nr-inter=0 / no-constrained-intra / no-strong-intra-smoothing / max-merge=4 / limit-refs=1 / limit-modes / me=3 / subme=4 / merange=25 / temporal-mvp / no-frame-dup / no-hme / weightp / weightb / no-analyze-src-pics / deblock=-3:-3 / no-sao / no-sao-non-deblock / rd=6 / selective-sao=0 / no-early-skip / rskip / no-fast-intra / no-tskip-fast / no-cu-lossless / b-intra / no-splitrd-skip / rdpenalty=0 / psy-rd=2.00 / psy-rdoq=1.00 / no-rd-refine / no-lossless / cbqpoffs=0 / crqpoffs=0 / rc=crf / crf=17.0 / qcomp=0.65 / qpstep=4 / stats-write=0 / stats-read=0 / vbv-maxrate=80000 / vbv-bufsize=80000 / vbv-init=0.9 / crf-max=0.0 / crf-min=0.0 / ipratio=1.40 / pbratio=1.30 / aq-mode=2 / aq-strength=0.85 / cutree / zone-count=0 / no-strict-cbr / qg-size=32 / no-rc-grain / qpmax=69 / qpmin=0 / no-const-vbv / sar=1 / overscan=0 / videoformat=5 / range=0 / colorprim=1 / transfer=1 / colormatrix=1 / chromaloc=0 / display-window=0 / cll=0,0 / min-luma=0 / max-luma=1023 / log2-max-poc-lsb=8 / vui-timing-info / vui-hrd-info / slices=1 / no-opt-qp-pps / no-opt-ref-list-length-pps / no-multi-pass-opt-rps / scenecut-bias=0.05 / hist-threshold=0.03 / no-opt-cu-delta-qp / no-aq-motion / no-hdr10 / no-hdr10-opt / no-dhdr10-opt / no-idr-recovery-sei / analysis-reuse-level=0 / analysis-save-reuse-level=0 / analysis-load-reuse-level=0 / scale-factor=0 / refine-intra=0 / refine-inter=0 / refine-mv=1 / refine-ctu-distortion=0 / no-limit-sao / ctu-info=0 / no-lowpass-dct / refine-analysis-type=0 / copy-pic=1 / max-ausize-factor=1.0 / no-dynamic-refine / no-single-sei / no-hevc-aq / no-svt / no-field / qp-adaptation-range=1.00 / no-scenecut-aware-qpconformance-window-offsets / right=0 / bottom=0 / NTM4NzU= / decoder-max-rate=0
  35. Language                                 : English
  36. Default                                  : Yes
  37. Forced                                   : No
  38. Color range                              : Limited
  39. Color primaries                          : BT.709
  40. Transfer characteristics                 : BT.709
  41. Matrix coefficients                      : BT.709
  42. Audio
  43. ID                                       : 2
  44. Format                                   : DTS XLL
  45. Format/Info                              : Digital Theater Systems
  46. Commercial name                          : DTS-HD Master Audio
  47. Codec ID                                 : A_DTS
  48. Duration                                 : 1 h 57 min
  49. Bit rate mode                            : Variable
  50. Bit rate                                 : 3 408 kb/s
  51. Channel(s)                               : 6 channels
  52. Channel layout                           : C L R Ls Rs LFE
  53. Sampling rate                            : 48.0 kHz
  54. Frame rate                               : 93.750 FPS (512 SPF)
  55. Bit depth                                : 24 bits
  56. Compression mode                         : Lossless
  57. Stream size                              : 2.79 GiB (43%)
  58. Title                                    : English DTS-HD Master Audio 5.1 @ 3408 kbps
  59. Language                                 : English
  60. Default                                  : Yes
  61. Forced                                   : No
  62. Text #1
  63. ID                                       : 3
  64. Format                                   : PGS
  65. Codec ID                                 : S_HDMV/PGS
  66. Codec ID/Info                            : Picture based subtitle format used on BDs/HD-DVDs
  67. Duration                                 : 1 h 51 min
  68. Bit rate                                 : 33.6 kb/s
  69. Count of elements                        : 2882
  70. Stream size                              : 26.8 MiB (0%)
  71. Title                                    : Eng/SUP
  72. Language                                 : English
  73. Default                                  : No
  74. Forced                                   : No
  75. Text #2
  76. ID                                       : 4
  77. Format                                   : PGS
  78. Codec ID                                 : S_HDMV/PGS
  79. Codec ID/Info                            : Picture based subtitle format used on BDs/HD-DVDs
  80. Duration                                 : 1 h 56 min
  81. Bit rate                                 : 24.6 kb/s
  82. Count of elements                        : 2603
  83. Stream size                              : 20.5 MiB (0%)
  84. Title                                    : Chs/SUP  原盘简体
  85. Language                                 : Chinese
  86. Default                                  : Yes
  87. Forced                                   : No
  88. Text #3
  89. ID                                       : 5
  90. Format                                   : PGS
  91. Codec ID                                 : S_HDMV/PGS
  92. Codec ID/Info                            : Picture based subtitle format used on BDs/HD-DVDs
  93. Duration                                 : 1 h 56 min
  94. Bit rate                                 : 21.7 kb/s
  95. Count of elements                        : 2605
  96. Stream size                              : 18.0 MiB (0%)
  97. Title                                    : Cht/SUP  原盘繁体(HK)
  98. Language                                 : Chinese
  99. Default                                  : No
  100. Forced                                   : No
  101. Text #4
  102. ID                                       : 6
  103. Format                                   : PGS
  104. Codec ID                                 : S_HDMV/PGS
  105. Codec ID/Info                            : Picture based subtitle format used on BDs/HD-DVDs
  106. Duration                                 : 1 h 56 min
  107. Bit rate                                 : 22.4 kb/s
  108. Count of elements                        : 2597
  109. Stream size                              : 18.6 MiB (0%)
  110. Title                                    : Cht/SUP  原盘繁体(TW)
  111. Language                                 : Chinese
  112. Default                                  : No
  113. Forced                                   : No
  114. Menu
  115. 00:00:00.000                             : en:第 01 章
  116. 00:06:08.451                             : en:第 02 章
  117. 00:14:19.025                             : en:第 03 章
  118. 00:20:49.373                             : en:第 04 章
  119. 00:24:14.536                             : en:第 05 章
  120. 00:28:37.049                             : en:第 06 章
  121. 00:35:47.979                             : en:第 07 章
  122. 00:42:35.386                             : en:第 08 章
  123. 00:49:06.068                             : en:第 09 章
  124. 00:54:09.413                             : en:第 10 章
  125. 01:00:24.496                             : en:第 11 章
  126. 01:06:22.562                             : en:第 12 章
  127. 01:12:31.222                             : en:第 13 章
  128. 01:19:35.771                             : en:第 14 章
  129. 01:25:25.829                             : en:第 15 章
  130. 01:29:16.560                             : en:第 16 章
  131. 01:34:08.226                             : en:第 17 章
  132. 01:40:45.998                             : en:第 18 章
  133. 01:47:40.287                             : en:第 19 章
  134. 01:52:26.740                             : en:第 20 章
复制代码

















保举请利用qBittorrent,utorrent,transmission等标准BT软件下载!以获得最快速度。奉求保种!





回复

使用道具 举报

懒得打字嘛,点击右侧快捷回复 【右侧内容,后台自定义】
您需要登录后才可以回帖 登录 | 立即加入

本版积分规则

Archiver|小黑屋| 蓝光电影网 |网站地图

Copyright © 2021 Comsenz Inc. Powered by 蓝光电影网

蓝光电影网

本站内容由用户自主分享和转载自互联网,转载目的在于传递更多信息,并不代表本网赞同其观点和对其真实性负责。

如有侵权、违反国家法律政策行为,请联系我们,我们会第一时间及时清除和处理!

举报反馈邮箱:[email protected]

快速回复 返回顶部 返回列表