找回密码

蓝光电影网

查看: 78|回复: 0

[剧情] 情迷拉斯维加斯[简繁英字幕].What.Happens.in.Vegas.2008.1080p.AMZN.WEB-DL.H264.DDP5.1-TAGWEB 10.38GB

[复制链接]
蓝光币
8
发表于 2022-7-31 01:58:28 | 显示全部楼层 |阅读模式


◎标  题 情迷拉斯维加斯
◎译  名 赌城无记事 / 一夜赌城恋大咗(港) / 头彩朋友(台) / 情迷赌城
◎片  名 What Happens in Vegas
◎年  代 2008
◎产  地 美国
◎类  别 笑剧 / 恋爱
◎语  言 英语 / 塞尔维亚-克罗地亚语
◎上映日期 2008-05-09(美国)
◎IMDb评分 6.1/10 (174871人评价)
◎IMDb链接 https://www.imdb.com/title/tt1033643/
◎豆瓣评分 6.5/10 (14342人评价)
◎豆瓣链接 https://movie.douban.com/subject/2133318/
◎片  长 99 分钟
◎导  演 汤姆·沃恩 Tom Vaughan
◎编  剧 达纳·福克斯 Dana Fox
◎演  员 卡梅隆·迪亚兹 Cameron Diaz
       阿什顿·库彻 Ashton Kutcher
       罗伯·考德瑞 Rob Corddry
       蕾克·贝尔 Lake Bell
       杰森·苏戴奇斯 Jason Sudeikis
       特里特·威廉斯 Treat Williams
        Anthony Mingilino
       迪尔德丽·奥康奈尔 Deirdre O'Connell
       汤姆·斯特拉特福 Tom Stratford
       兰内特·弗吉特 Lanette Fugit
        Brandon Goins
        Ronald E. Giles
       贝斯·劳费尔 Beth Laufer
       蒂·艾萨基尔多 Ty Izquierdo
       克里斯滕·里特 Krysten Ritter
        Matthew Martini
        Hector Lincoln
       丹尼斯·米勒 Dennis Miller
       Thomas Torrey Thomas Torrey
       卡西迪·加德 Cassidy Gard
       丹尼斯·法里纳 Dennis Farina
       奎恩·拉提法 Queen Latifah
       杨雅慧 Michelle Krusiec
       扎克·加利凡纳基斯 Zach Galifianakis
       达里尔·鲁本·霍尔 Darryl Reuben Hall
       乔·曼奇尼 Joe Mancini
       布鲁斯·帕金斯 Bruce Perkins
        Christopher Negrin
        Mauro Bossi
       乔纳森·伊冯 Jonathan Yvon
       Michael Harkins Michael Harkins
       Ron Carter Ron Carter
       安德鲁·达利 Andrew Daly
       肖恩·利维 Shawn Levy
       阿诺恩·米尔坎 Arnon Milchan
       克里斯托弗·贝克 Christophe Beck
       米卡 Mika
       马修·莱昂涅蒂 Matthew F. Leonetti
       艾薇·考夫曼 Avy Kaufman
       斯图尔特·伍尔特泽尔 Stuart Wurtzel
       苏珊·博德 Susan Bode
       詹妮弗·亚历克斯·尼卡森 Jennifer Alex Nickason
       蕾妮·厄尔里奇·卡尔夫斯 Renee Ehrlich Kalfus
       Robin Fredriksz Robin Fredriksz
       Tracey Levy Tracey Levy
       Mary Anne Spano Mary Anne Spano
       Angel De Angelis Angel De Angelis
       Glen Trotiner Glen Trotiner
       Eddie Micallef Eddie Micallef
       Mark Intravartolo Mark Intravartolo
       理查德·弗里德兰德尔 Richard Friedlander
       帕特里克·克兰斯 Patrick Clancey
        Bryan Wengroff
       埃里克·J·罗伯特森 Eric J. Robertson
        Aleksandar Djordjevic
       迈克尔·狄龙 Michael Dillon
◎简  介
  Joy(卡梅隆•迪亚茨 Cameron Diaz 饰)处处以男友Mason为中心而损失了自我。但Mason反而对此厌倦向Joy提出分手。Jack(阿什顿•库彻 Ashton Kutcher 饰)在父亲的家具工场上班但并不尽力,对此失望的父亲一怒之下解雇了他。两个失意的人,在各自好友Tipper(蕾克•贝尔 Lake Bell 饰)和Hate(罗伯•考德瑞 Rob Corddry 饰)的劝说下前往拉斯维加斯度假。花天酒地,两个心灵受伤的人敞开了心胸,度过了疯狂而美好的夜晚。早晨醒来发现结了婚,而Joy出钱Jack出力的一次赌博竟赢得了300万美圆的大奖,都想独吞奖金的两人找来了法官。法官为赏罚两人对婚姻的儿戏,判决解冻奖金6个月。互不相让的两人在各自好友的倡议下决议“击垮”对方,逼对方先提出仳离,自己可以独吞奖金。因而,一场场争锋相对却妙趣横生的较劲随...
  1. ##### MediaInfo ######
  2. General
  3. Unique ID                                : 314314138754300202916021352598878532169 (0xEC76B38057FB6076E6E1930E6F3FB249)
  4. Complete name                            : What.Happens.in.Vegas.2008.1080p.AMZN.WEB-DL.H264.DDP5.1-TAGWEB.mkv
  5. Format                                   : Matroska
  6. Format version                           : Version 4
  7. File size                                : 10.4 GiB
  8. Duration                                 : 1 h 39 min
  9. Overall bit rate                         : 14.9 Mb/s
  10. Encoded date                             : UTC 2022-07-16 00:00:08
  11. Writing application                      : mkvmerge v67.0.0 ('Under Stars') 64-bit
  12. Writing library                          : libebml v1.4.2 + libmatroska v1.6.4
  13. Video
  14. ID                                       : 1
  15. Format                                   : AVC
  16. Format/Info                              : Advanced Video Codec
  17. Format profile                           : [email protected]
  18. Format settings                          : CABAC / 4 Ref Frames
  19. Format settings, CABAC                   : Yes
  20. Format settings, Reference frames        : 4 frames
  21. Codec ID                                 : V_MPEG4/ISO/AVC
  22. Duration                                 : 1 h 39 min
  23. Bit rate                                 : 11.0 Mb/s
  24. Width                                    : 1 920 pixels
  25. Height                                   : 816 pixels
  26. Display aspect ratio                     : 2.35:1
  27. Frame rate mode                          : Constant
  28. Frame rate                               : 23.976 (24000/1001/53875) FPS
  29. Color space                              : YUV
  30. Chroma subsampling                       : 4:2:0
  31. Bit depth                                : 8 bits
  32. Scan type                                : Progressive
  33. Bits/(Pixel*Frame)                       : 0.293
  34. Stream size                              : 7.69 GiB (74%)
  35. Language                                 : English
  36. Default                                  : Yes
  37. Forced                                   : No
  38. Color range                              : Limited
  39. Color primaries                          : BT.709
  40. Transfer characteristics                 : BT.709
  41. Matrix coefficients                      : BT.709
  42. Audio #1
  43. ID                                       : 2
  44. Format                                   : E-AC-3
  45. Format/Info                              : Enhanced AC-3
  46. Commercial name                          : Dolby Digital Plus
  47. Codec ID                                 : A_EAC3
  48. Duration                                 : 1 h 39 min
  49. Bit rate mode                            : Constant
  50. Bit rate                                 : 640 kb/s
  51. Channel(s)                               : 6 channels
  52. Channel layout                           : L R C LFE Ls Rs
  53. Sampling rate                            : 48.0 kHz
  54. Frame rate                               : 31.250 FPS (1536 SPF)
  55. Compression mode                         : Lossy
  56. Stream size                              : 458 MiB (4%)
  57. Title                                    : English
  58. Language                                 : English
  59. Service kind                             : Complete Main
  60. Default                                  : Yes
  61. Forced                                   : No
  62. Audio #2
  63. ID                                       : 3
  64. Format                                   : E-AC-3
  65. Format/Info                              : Enhanced AC-3
  66. Commercial name                          : Dolby Digital Plus
  67. Codec ID                                 : A_EAC3
  68. Duration                                 : 1 h 39 min
  69. Bit rate mode                            : Constant
  70. Bit rate                                 : 640 kb/s
  71. Channel(s)                               : 6 channels
  72. Channel layout                           : L R C LFE Ls Rs
  73. Sampling rate                            : 48.0 kHz
  74. Frame rate                               : 31.250 FPS (1536 SPF)
  75. Compression mode                         : Lossy
  76. Stream size                              : 458 MiB (4%)
  77. Title                                    : espa?ol
  78. Language                                 : Spanish
  79. Service kind                             : Complete Main
  80. Default                                  : No
  81. Forced                                   : No
  82. Audio #3
  83. ID                                       : 4
  84. Format                                   : E-AC-3
  85. Format/Info                              : Enhanced AC-3
  86. Commercial name                          : Dolby Digital Plus
  87. Codec ID                                 : A_EAC3
  88. Duration                                 : 1 h 39 min
  89. Bit rate mode                            : Constant
  90. Bit rate                                 : 640 kb/s
  91. Channel(s)                               : 6 channels
  92. Channel layout                           : L R C LFE Ls Rs
  93. Sampling rate                            : 48.0 kHz
  94. Frame rate                               : 31.250 FPS (1536 SPF)
  95. Compression mode                         : Lossy
  96. Stream size                              : 458 MiB (4%)
  97. Title                                    : Deutsch
  98. Language                                 : German
  99. Service kind                             : Complete Main
  100. Default                                  : No
  101. Forced                                   : No
  102. Audio #4
  103. ID                                       : 5
  104. Format                                   : E-AC-3
  105. Format/Info                              : Enhanced AC-3
  106. Commercial name                          : Dolby Digital Plus
  107. Codec ID                                 : A_EAC3
  108. Duration                                 : 1 h 39 min
  109. Bit rate mode                            : Constant
  110. Bit rate                                 : 640 kb/s
  111. Channel(s)                               : 6 channels
  112. Channel layout                           : L R C LFE Ls Rs
  113. Sampling rate                            : 48.0 kHz
  114. Frame rate                               : 31.250 FPS (1536 SPF)
  115. Compression mode                         : Lossy
  116. Stream size                              : 458 MiB (4%)
  117. Title                                    : fran?ais
  118. Language                                 : French
  119. Service kind                             : Complete Main
  120. Default                                  : No
  121. Forced                                   : No
  122. Audio #5
  123. ID                                       : 6
  124. Format                                   : E-AC-3
  125. Format/Info                              : Enhanced AC-3
  126. Commercial name                          : Dolby Digital Plus
  127. Codec ID                                 : A_EAC3
  128. Duration                                 : 1 h 39 min
  129. Bit rate mode                            : Constant
  130. Bit rate                                 : 640 kb/s
  131. Channel(s)                               : 6 channels
  132. Channel layout                           : L R C LFE Ls Rs
  133. Sampling rate                            : 48.0 kHz
  134. Frame rate                               : 31.250 FPS (1536 SPF)
  135. Compression mode                         : Lossy
  136. Stream size                              : 458 MiB (4%)
  137. Title                                    : italiano
  138. Language                                 : Italian
  139. Service kind                             : Complete Main
  140. Default                                  : No
  141. Forced                                   : No
  142. Audio #6
  143. ID                                       : 7
  144. Format                                   : E-AC-3
  145. Format/Info                              : Enhanced AC-3
  146. Commercial name                          : Dolby Digital Plus
  147. Codec ID                                 : A_EAC3
  148. Duration                                 : 1 h 39 min
  149. Bit rate mode                            : Constant
  150. Bit rate                                 : 640 kb/s
  151. Channel(s)                               : 6 channels
  152. Channel layout                           : L R C LFE Ls Rs
  153. Sampling rate                            : 48.0 kHz
  154. Frame rate                               : 31.250 FPS (1536 SPF)
  155. Compression mode                         : Lossy
  156. Stream size                              : 458 MiB (4%)
  157. Title                                    : português
  158. Language                                 : Portuguese
  159. Service kind                             : Complete Main
  160. Default                                  : No
  161. Forced                                   : No
  162. Text #1
  163. ID                                       : 8
  164. Format                                   : UTF-8
  165. Codec ID                                 : S_TEXT/UTF8
  166. Codec ID/Info                            : UTF-8 Plain Text
  167. Duration                                 : 1 h 37 min
  168. Bit rate                                 : 54 b/s
  169. Count of elements                        : 1286
  170. Stream size                              : 38.7 KiB (0%)
  171. Title                                    : 中文 (简体)
  172. Language                                 : Chinese
  173. Default                                  : Yes
  174. Forced                                   : No
  175. Text #2
  176. ID                                       : 9
  177. Format                                   : UTF-8
  178. Codec ID                                 : S_TEXT/UTF8
  179. Codec ID/Info                            : UTF-8 Plain Text
  180. Duration                                 : 1 h 37 min
  181. Bit rate                                 : 51 b/s
  182. Count of elements                        : 1213
  183. Stream size                              : 36.9 KiB (0%)
  184. Title                                    : 中文 (繁體)
  185. Language                                 : Chinese
  186. Default                                  : No
  187. Forced                                   : No
  188. Text #3
  189. ID                                       : 10
  190. Format                                   : UTF-8
  191. Codec ID                                 : S_TEXT/UTF8
  192. Codec ID/Info                            : UTF-8 Plain Text
  193. Duration                                 : 1 h 38 min
  194. Bit rate                                 : 78 b/s
  195. Count of elements                        : 1597
  196. Stream size                              : 56.5 KiB (0%)
  197. Title                                    : English (United States)
  198. Language                                 : English
  199. Default                                  : No
  200. Forced                                   : No
  201. Text #4
  202. ID                                       : 11
  203. Format                                   : UTF-8
  204. Codec ID                                 : S_TEXT/UTF8
  205. Codec ID/Info                            : UTF-8 Plain Text
  206. Duration                                 : 1 h 37 min
  207. Bit rate                                 : 68 b/s
  208. Count of elements                        : 1287
  209. Stream size                              : 49.3 KiB (0%)
  210. Title                                    : English (United States)
  211. Language                                 : English
  212. Default                                  : No
  213. Forced                                   : No
  214. Text #5
  215. ID                                       : 12
  216. Format                                   : UTF-8
  217. Codec ID                                 : S_TEXT/UTF8
  218. Codec ID/Info                            : UTF-8 Plain Text
  219. Duration                                 : 1 h 37 min
  220. Bit rate                                 : 83 b/s
  221. Count of elements                        : 1233
  222. Stream size                              : 59.8 KiB (0%)
  223. Title                                    : ??????? (??????)
  224. Language                                 : Arabic
  225. Default                                  : No
  226. Forced                                   : No
  227. Text #6
  228. ID                                       : 13
  229. Format                                   : UTF-8
  230. Codec ID                                 : S_TEXT/UTF8
  231. Codec ID/Info                            : UTF-8 Plain Text
  232. Duration                                 : 1 h 37 min
  233. Bit rate                                 : 62 b/s
  234. Count of elements                        : 1290
  235. Stream size                              : 44.7 KiB (0%)
  236. Title                                    : ?e?tina (?esko)
  237. Language                                 : Czech
  238. Default                                  : No
  239. Forced                                   : No
  240. Text #7
  241. ID                                       : 14
  242. Format                                   : UTF-8
  243. Codec ID                                 : S_TEXT/UTF8
  244. Codec ID/Info                            : UTF-8 Plain Text
  245. Duration                                 : 1 h 37 min
  246. Bit rate                                 : 57 b/s
  247. Count of elements                        : 1296
  248. Stream size                              : 41.2 KiB (0%)
  249. Title                                    : dansk (Danmark)
  250. Language                                 : Danish
  251. Default                                  : No
  252. Forced                                   : No
  253. Text #8
  254. ID                                       : 15
  255. Format                                   : UTF-8
  256. Codec ID                                 : S_TEXT/UTF8
  257. Codec ID/Info                            : UTF-8 Plain Text
  258. Duration                                 : 1 h 37 min
  259. Bit rate                                 : 81 b/s
  260. Count of elements                        : 1389
  261. Stream size                              : 58.2 KiB (0%)
  262. Title                                    : Deutsch (Deutschland)
  263. Language                                 : German
  264. Default                                  : No
  265. Forced                                   : No
  266. Text #9
  267. ID                                       : 16
  268. Format                                   : UTF-8
  269. Codec ID                                 : S_TEXT/UTF8
  270. Codec ID/Info                            : UTF-8 Plain Text
  271. Duration                                 : 1 h 37 min
  272. Bit rate                                 : 107 b/s
  273. Count of elements                        : 1288
  274. Stream size                              : 76.8 KiB (0%)
  275. Title                                    : Ελληνικ? (Ελλ?δα)
  276. Language                                 : Greek
  277. Default                                  : No
  278. Forced                                   : No
  279. Text #10
  280. ID                                       : 17
  281. Format                                   : UTF-8
  282. Codec ID                                 : S_TEXT/UTF8
  283. Codec ID/Info                            : UTF-8 Plain Text
  284. Duration                                 : 1 h 37 min
  285. Bit rate                                 : 66 b/s
  286. Count of elements                        : 1321
  287. Stream size                              : 47.4 KiB (0%)
  288. Title                                    : espa?ol (Latinoamérica)
  289. Language                                 : Spanish
  290. Default                                  : No
  291. Forced                                   : No
  292. Text #11
  293. ID                                       : 18
  294. Format                                   : UTF-8
  295. Codec ID                                 : S_TEXT/UTF8
  296. Codec ID/Info                            : UTF-8 Plain Text
  297. Duration                                 : 1 h 37 min
  298. Bit rate                                 : 68 b/s
  299. Count of elements                        : 1345
  300. Stream size                              : 48.9 KiB (0%)
  301. Title                                    : espa?ol (Espa?a)
  302. Language                                 : Spanish
  303. Default                                  : No
  304. Forced                                   : No
  305. Text #12
  306. ID                                       : 19
  307. Format                                   : UTF-8
  308. Codec ID                                 : S_TEXT/UTF8
  309. Codec ID/Info                            : UTF-8 Plain Text
  310. Duration                                 : 1 h 37 min
  311. Bit rate                                 : 54 b/s
  312. Count of elements                        : 1073
  313. Stream size                              : 39.3 KiB (0%)
  314. Title                                    : suomi (Suomi)
  315. Language                                 : Finnish
  316. Default                                  : No
  317. Forced                                   : No
  318. Text #13
  319. ID                                       : 20
  320. Format                                   : UTF-8
  321. Codec ID                                 : S_TEXT/UTF8
  322. Codec ID/Info                            : UTF-8 Plain Text
  323. Duration                                 : 1 h 37 min
  324. Bit rate                                 : 54 b/s
  325. Count of elements                        : 1194
  326. Stream size                              : 39.0 KiB (0%)
  327. Title                                    : Filipino (Pilipinas)
  328. Language                                 : fil
  329. Default                                  : No
  330. Forced                                   : No
  331. Text #14
  332. ID                                       : 21
  333. Format                                   : UTF-8
  334. Codec ID                                 : S_TEXT/UTF8
  335. Codec ID/Info                            : UTF-8 Plain Text
  336. Duration                                 : 1 h 37 min
  337. Bit rate                                 : 53 b/s
  338. Count of elements                        : 1381
  339. Stream size                              : 38.4 KiB (0%)
  340. Title                                    : fran?ais (France)
  341. Language                                 : French
  342. Default                                  : No
  343. Forced                                   : No
  344. Text #15
  345. ID                                       : 22
  346. Format                                   : UTF-8
  347. Codec ID                                 : S_TEXT/UTF8
  348. Codec ID/Info                            : UTF-8 Plain Text
  349. Duration                                 : 1 h 37 min
  350. Bit rate                                 : 107 b/s
  351. Count of elements                        : 1304
  352. Stream size                              : 77.0 KiB (0%)
  353. Title                                    : ????? (?????)
  354. Language                                 : Hebrew
  355. Default                                  : No
  356. Forced                                   : No
  357. Text #16
  358. ID                                       : 23
  359. Format                                   : UTF-8
  360. Codec ID                                 : S_TEXT/UTF8
  361. Codec ID/Info                            : UTF-8 Plain Text
  362. Duration                                 : 1 h 37 min
  363. Bit rate                                 : 67 b/s
  364. Count of elements                        : 1329
  365. Stream size                              : 48.1 KiB (0%)
  366. Title                                    : magyar (Magyarország)
  367. Language                                 : Hungarian
  368. Default                                  : No
  369. Forced                                   : No
  370. Text #17
  371. ID                                       : 24
  372. Format                                   : UTF-8
  373. Codec ID                                 : S_TEXT/UTF8
  374. Codec ID/Info                            : UTF-8 Plain Text
  375. Duration                                 : 1 h 37 min
  376. Bit rate                                 : 61 b/s
  377. Count of elements                        : 1296
  378. Stream size                              : 44.2 KiB (0%)
  379. Title                                    : bahasa Indonesia (Indonesia)
  380. Language                                 : Indonesian
  381. Default                                  : No
  382. Forced                                   : No
  383. Text #18
  384. ID                                       : 25
  385. Format                                   : UTF-8
  386. Codec ID                                 : S_TEXT/UTF8
  387. Codec ID/Info                            : UTF-8 Plain Text
  388. Duration                                 : 1 h 37 min
  389. Bit rate                                 : 75 b/s
  390. Count of elements                        : 1334
  391. Stream size                              : 54.0 KiB (0%)
  392. Title                                    : italiano (Italia)
  393. Language                                 : Italian
  394. Default                                  : No
  395. Forced                                   : No
  396. Text #19
  397. ID                                       : 26
  398. Format                                   : UTF-8
  399. Codec ID                                 : S_TEXT/UTF8
  400. Codec ID/Info                            : UTF-8 Plain Text
  401. Duration                                 : 1 h 37 min
  402. Bit rate                                 : 46 b/s
  403. Count of elements                        : 1264
  404. Stream size                              : 33.6 KiB (0%)
  405. Title                                    : 日本語 (日本)
  406. Language                                 : Japanese
  407. Default                                  : No
  408. Forced                                   : No
  409. Text #20
  410. ID                                       : 27
  411. Format                                   : UTF-8
  412. Codec ID                                 : S_TEXT/UTF8
  413. Codec ID/Info                            : UTF-8 Plain Text
  414. Duration                                 : 1 h 37 min
  415. Bit rate                                 : 72 b/s
  416. Count of elements                        : 1549
  417. Stream size                              : 51.6 KiB (0%)
  418. Title                                    : ??? (????)
  419. Language                                 : Korean
  420. Default                                  : No
  421. Forced                                   : No
  422. Text #21
  423. ID                                       : 28
  424. Format                                   : UTF-8
  425. Codec ID                                 : S_TEXT/UTF8
  426. Codec ID/Info                            : UTF-8 Plain Text
  427. Duration                                 : 1 h 37 min
  428. Bit rate                                 : 69 b/s
  429. Count of elements                        : 1292
  430. Stream size                              : 49.7 KiB (0%)
  431. Title                                    : bahasa Malaysia (Malaysia)
  432. Language                                 : Malay
  433. Default                                  : No
  434. Forced                                   : No
  435. Text #22
  436. ID                                       : 29
  437. Format                                   : UTF-8
  438. Codec ID                                 : S_TEXT/UTF8
  439. Codec ID/Info                            : UTF-8 Plain Text
  440. Duration                                 : 1 h 37 min
  441. Bit rate                                 : 50 b/s
  442. Count of elements                        : 1201
  443. Stream size                              : 35.9 KiB (0%)
  444. Title                                    : norsk bokm?l (Norge)
  445. Language                                 : Norwegian Bokmal
  446. Default                                  : No
  447. Forced                                   : No
  448. Text #23
  449. ID                                       : 30
  450. Format                                   : UTF-8
  451. Codec ID                                 : S_TEXT/UTF8
  452. Codec ID/Info                            : UTF-8 Plain Text
  453. Duration                                 : 1 h 37 min
  454. Bit rate                                 : 53 b/s
  455. Count of elements                        : 1071
  456. Stream size                              : 38.3 KiB (0%)
  457. Title                                    : Nederlands (Nederland)
  458. Language                                 : Dutch
  459. Default                                  : No
  460. Forced                                   : No
  461. Text #24
  462. ID                                       : 31
  463. Format                                   : UTF-8
  464. Codec ID                                 : S_TEXT/UTF8
  465. Codec ID/Info                            : UTF-8 Plain Text
  466. Duration                                 : 1 h 37 min
  467. Bit rate                                 : 59 b/s
  468. Count of elements                        : 1460
  469. Stream size                              : 42.5 KiB (0%)
  470. Title                                    : polski (Polska)
  471. Language                                 : Polish
  472. Default                                  : No
  473. Forced                                   : No
  474. Text #25
  475. ID                                       : 32
  476. Format                                   : UTF-8
  477. Codec ID                                 : S_TEXT/UTF8
  478. Codec ID/Info                            : UTF-8 Plain Text
  479. Duration                                 : 1 h 37 min
  480. Bit rate                                 : 67 b/s
  481. Count of elements                        : 1305
  482. Stream size                              : 48.5 KiB (0%)
  483. Title                                    : português (Brasil)
  484. Language                                 : Portuguese
  485. Default                                  : No
  486. Forced                                   : No
  487. Text #26
  488. ID                                       : 33
  489. Format                                   : UTF-8
  490. Codec ID                                 : S_TEXT/UTF8
  491. Codec ID/Info                            : UTF-8 Plain Text
  492. Duration                                 : 1 h 37 min
  493. Bit rate                                 : 63 b/s
  494. Count of elements                        : 1260
  495. Stream size                              : 45.4 KiB (0%)
  496. Title                                    : português (Portugal)
  497. Language                                 : Portuguese
  498. Default                                  : No
  499. Forced                                   : No
  500. Text #27
  501. ID                                       : 34
  502. Format                                   : UTF-8
  503. Codec ID                                 : S_TEXT/UTF8
  504. Codec ID/Info                            : UTF-8 Plain Text
  505. Duration                                 : 1 h 37 min
  506. Bit rate                                 : 60 b/s
  507. Count of elements                        : 1282
  508. Stream size                              : 43.5 KiB (0%)
  509. Title                                    : roman? (Romania)
  510. Language                                 : Romanian
  511. Default                                  : No
  512. Forced                                   : No
  513. Text #28
  514. ID                                       : 35
  515. Format                                   : UTF-8
  516. Codec ID                                 : S_TEXT/UTF8
  517. Codec ID/Info                            : UTF-8 Plain Text
  518. Duration                                 : 1 h 37 min
  519. Bit rate                                 : 105 b/s
  520. Count of elements                        : 1481
  521. Stream size                              : 75.6 KiB (0%)
  522. Title                                    : русский (Россия)
  523. Language                                 : Russian
  524. Default                                  : No
  525. Forced                                   : No
  526. Text #29
  527. ID                                       : 36
  528. Format                                   : UTF-8
  529. Codec ID                                 : S_TEXT/UTF8
  530. Codec ID/Info                            : UTF-8 Plain Text
  531. Duration                                 : 1 h 37 min
  532. Bit rate                                 : 133 b/s
  533. Count of elements                        : 1302
  534. Stream size                              : 95.2 KiB (0%)
  535. Title                                    : ??? (???)
  536. Language                                 : Thai
  537. Default                                  : No
  538. Forced                                   : No
  539. Text #30
  540. ID                                       : 37
  541. Format                                   : UTF-8
  542. Codec ID                                 : S_TEXT/UTF8
  543. Codec ID/Info                            : UTF-8 Plain Text
  544. Duration                                 : 1 h 37 min
  545. Bit rate                                 : 70 b/s
  546. Count of elements                        : 1481
  547. Stream size                              : 50.1 KiB (0%)
  548. Title                                    : Türk?e (Türkiye)
  549. Language                                 : Turkish
  550. Default                                  : No
  551. Forced                                   : No
  552. Text #31
  553. ID                                       : 38
  554. Format                                   : UTF-8
  555. Codec ID                                 : S_TEXT/UTF8
  556. Codec ID/Info                            : UTF-8 Plain Text
  557. Duration                                 : 1 h 37 min
  558. Bit rate                                 : 68 b/s
  559. Count of elements                        : 1469
  560. Stream size                              : 49.1 KiB (0%)
  561. Title                                    : Türk?e (Türkiye)
  562. Language                                 : Turkish
  563. Default                                  : No
  564. Forced                                   : No
  565. Menu
  566. 00:00:00.000                             : en:Studio Logos
  567. 00:00:38.000                             : en:Joy discusses her evening with Mason & Opening Credits, New York.
  568. 00:01:40.000                             : en:Kelly drops by to roleplay with Jack, Jack's apartment.
  569. 00:02:41.000                             : en:Joy checks in at work, NYMEX.
  570. 00:03:16.000                             : en:Jack gets fired, Fuller Closets.
  571. 00:04:09.000                             : en:Jack fails to win his job back, basketball court.
  572. 00:05:31.000                             : en:Mason breaks up with Joy in front of his whole surprise party, Mason's condo.
  573. 00:07:29.000                             : en:Jack & Joy drunkenly decide to go to Vegas, various bars.
  574. 00:09:24.000                             : en:Joy & Tipper meet Jack & Hater,hotel.
  575. 00:13:16.000                             : en:Jack flirts persistently with Joy, limousine.
  576. 00:14:31.000                             : en:Jack & Joy have a worst experience contest, bar.
  577. 00:15:45.000                             : en:Jack & Joy have fun, Vegas Montage.
  578. 00:17:42.000                             : en:Joy wakes up married, hotel room.
  579. 00:18:37.000                             : en:Jack & Joy talk while Tipper & Hater fight, buffet restaurant.
  580. 00:19:56.000                             : en:Jack & Joy have their first fight, casino.
  581. 00:23:56.000                             : en:The judge exercises absurd powers, courtroom.
  582. 00:26:55.000                             : en:Jack & Joy mutually challenge each other to survive 6 months of marriage, court steps.
  583. 00:27:48.000                             : en:Joy moves in, Jack's place.
  584. 00:30:01.000                             : en:Jack & Joy learn each others' living habits, apartment.
  585. 00:33:06.000                             : en:Jack & Joy have very different days, multiple locations.
  586. 00:34:18.000                             : en:Jack & Joy start marriage counseling, Twitchell's office
  587. 00:36:35.000                             : en:Jack & Joy make life difficult for each other, apartment.
  588. 00:38:48.000                             : en:Jack & Joy conspire against each other, multiple locations.
  589. 00:40:25.000                             : en:Jack commits a dangerous felony by dosing his wife with stimulants, multiple locations.
  590. 00:41:37.000                             : en:Jack and Joy have some tempting guests, apartment.
  591. 00:48:02.000                             : en:Marriage counseling take two, Twichell's office.
  592. 00:48:36.000                             : en:Hater has another great idea, multiple locations.
  593. 00:51:00.000                             : en:Jack tricks Joy, multiple locations.
  594. 00:51:50.000                             : en:Jack and Joy try to make each other miss counseling, Twichell's office.
  595. 00:55:44.000                             : en:Joy invites Jack's parents over, apartment.
  596. 00:58:21.000                             : en:Jack has a new plan, apartment.
  597. 00:58:45.000                             : en:Jack meets Mason, bar.
  598. 01:00:30.000                             : en:Jack and Joy start to fall for each other, park.
  599. 01:03:31.000                             : en:Hater tells Jack to stay focused, park.
  600. 01:04:11.000                             : en:Banger wants Jack to come to the retreat, office.
  601. 01:04:58.000                             : en:Hater has another plan, apartment.
  602. 01:06:12.000                             : en:Jack shows up and charms everybody, retreat.
  603. 01:08:46.000                             : en:Jack and Joy go to the ball, retreat.
  604. 01:11:36.000                             : en:Jack makes a speech, retreat.
  605. 01:15:19.000                             : en:Jack and Joy talk, retreat.
  606. 01:17:18.000                             : en:Jack and Joy almost share a bed, retreat.
  607. 01:19:48.000                             : en:Jack and Joy start putting their lives together, montage.
  608. 01:21:26.000                             : en:The legal situation is sorted out, court.
  609. 01:24:40.000                             : en:Bittersweet celebration, apartment.
  610. 01:25:30.000                             : en:Joy gives up her promotion, NYMEX.
  611. 01:26:36.000                             : en:Jack's dad gives him advice, table.
  612. 01:27:15.000                             : en:Jack figures out where Joy is, bar.
  613. 01:27:52.000                             : en:Jack borrows Bear's car, street.
  614. 01:28:19.000                             : en:Jack finds Joy, multiple locations.
  615. 01:32:14.000                             : en:Six months earlier
  616. 01:33:11.000                             : en:End Credits
  617. 01:33:19.000                             : en:You know why, Mason's apartment.
  618. 01:33:44.000                             : en:End credits again
  619. 01:38:11.000                             : en:Dave the Bear gets rejected, street.
复制代码

















保举请利用qBittorrent,utorrent,transmission等标准BT软件下载!以获得最快速度。奉求保种!





回复

使用道具 举报

懒得打字嘛,点击右侧快捷回复 【右侧内容,后台自定义】
您需要登录后才可以回帖 登录 | 立即加入

本版积分规则

Archiver|小黑屋| 蓝光电影网 |网站地图

Copyright © 2021 Comsenz Inc. Powered by 蓝光电影网

蓝光电影网

本站内容由用户自主分享和转载自互联网,转载目的在于传递更多信息,并不代表本网赞同其观点和对其真实性负责。

如有侵权、违反国家法律政策行为,请联系我们,我们会第一时间及时清除和处理!

举报反馈邮箱:[email protected]

快速回复 返回顶部 返回列表