找回密码

蓝光电影网

查看: 47|回复: 1

[剧情] 蜘蛛侠:平行宇宙[国粤英多音轨/简繁英字幕].Spider.Man.Into.The.Spider.Verse.2018.BluRay.1080p.MultiAudio.DTS-HD.MA.5.1.x264-ALT 13.34GB

[复制链接]
蓝光币
7
发表于 2022-7-31 01:58:32 | 显示全部楼层 |阅读模式


◎标  题 蜘蛛侠:平行宇宙
◎译  名 蜘蛛侠:新纪元 / 蜘蛛人:新宇宙(台) / 蜘蛛侠:跳入蜘蛛宇宙(港) / 蜘蛛侠:平行天下 / Spider-Man: a New Universe
◎片  名 Spider-Man: Into the Spider-Verse
◎年  代 2018
◎产  地 美国
◎类  别 行动 / 科幻 / 动画 / 冒险
◎语  言 英语 / 西班牙语
◎上映日期 2018-12-21(中国大陆) / 2018-12-14(美国)
◎IMDb评分 8.4/10 (438605人评价)
◎IMDb链接 https://www.imdb.com/title/tt4633694/
◎豆瓣评分 8.6/10 (546060人评价)
◎豆瓣链接 https://movie.douban.com/subject/26374197/
◎片  长 116分钟(中国大陆) / 117分钟(美国) / 143分钟(加长版)
◎导  演 鲍勃·佩尔西凯蒂 Bob Persichetti
       彼得·拉姆齐 Peter Ramsey
       罗德尼·罗斯曼 Rodney Rothman
◎编  剧 菲尔·罗德 Phil Lord
       罗德尼·罗斯曼 Rodney Rothman
       布莱恩·本迪斯 Brian Bendis
       萨拉·皮凯利 Sara Pichelli
       史蒂夫·迪特寇 Steve Ditko
       斯坦·李 Stan Lee
       戴维·海因 David Hine
       法布里斯·萨波尔斯基 Fabrice Sapolsky
◎演  员 沙梅克·摩尔 Shameik Moore
       杰克·约翰逊 Jake M. Johnson
       海莉·斯坦菲尔德 Hailee Steinfeld
       马赫沙拉·阿里 Mahershala Ali
       布莱恩·泰里·亨利 Brian Tyree Henry
       莉莉·汤姆林 Lily Tomlin
       劳伦·维勒斯 Lauren Vélez
       佐伊·克罗维兹 Zoë Kravitz
       约翰·木兰尼 John Mulaney
       贵美子·格伦 Kimiko Glenn
       尼古拉斯·凯奇 Nicolas Cage
       凯瑟琳·哈恩 Kathryn Hahn
       列维·施瑞博尔 Liev Schreiber
       克里斯·派恩 Chris Pine
       娜塔丽·莫瑞丝 Natalie Morales
       奥斯卡·伊萨克 Oscar Isaac
       格里塔·李 Greta Lee
       斯坦·李 Stan Lee
       乔玛·塔科内 Jorma Taccone
       华金·科西奥 Joaquín Cosio
       蕾克·贝尔 Lake Bell
       梅勒妮·海恩斯 Melanie Haynes
       尼克·杰恩 Nick Jaine
       穆尼卜·拉赫曼 Muneeb Rehman
       卡洛斯·萨拉戈萨 Carlos Zaragoza
       黛西·罗斯·布莱内斯 Darcy Rose Byrnes
       里夫·霍顿 Rif Hutton
       哈里森·奈特 Harrison Knight
       莱克斯·朗 Lex Lang
       凯特琳·麦肯纳-威尔金森 Caitlin McKenna-Wilkinson
       斯科特·门维尔 Scott Menville
       克里斯托弗·米勒 Christopher Miller
       德维卡·帕利赫 Devika Parikh
       柯特妮·佩尔顿 Courtney Peldon
       克里斯蒂·法瑞斯 Chrystee Pharris
       杰奎琳·皮诺尔 Jacqueline Pinol
       贾斯汀·沉卡罗 Justin Shenkarow
       梅利莎·斯特姆 Melissa Sturm
       彭昱畅 Yuchang Peng
       张天爱 Tian'ai Zhang
       张琦 Qi Zhang
       波兹·马龙 Post Malone
◎标  签 蜘蛛侠 / 漫威 / 动画 / 超级豪杰 / 漫画改编 / 美国 / 科幻 / 2018
◎简  介
    正就读中学的少年老尔斯(沙梅克·摩尔 Shameik Moore 配音)意外被一只蒙受放射性净化的蜘蛛咬伤,随后身材发生奇异的变化。偶然机遇,他目击了蜘蛛侠(克里斯·派恩 Chris Pine 配音)和犯罪头子金并(列维·施瑞博尔 Liev Schreiber 配音)的战役。为了阻止金并操纵时空对撞机侵扰宇宙,蜘蛛侠终极壮烈牺牲。可未过量久,来自平行宇宙的颓丧的彼德·帕克(杰克·约翰逊 Jake M. Johnson 配音)出现在迈尔斯眼前。为了阻止金并的诡计,并帮助这个帕克返回自己的宇宙,他们闯入金并的老巢。在这一进程中,二人遭到章鱼博士和盘桓者的狙击。与此同时,来自其他宇宙的女蜘蛛侠、阴影蜘蛛侠、蜘猪侠、二次元蜘蛛妹相继出现。                                                                      他们协力与恶势力展开斗争……
  1. ##### MediaInfo ######
  2. General
  3. Unique ID                                : 239147415002203895257530313727327184172 (0xB3EA1DE47A7C236780D5F4FB109DA52C)
  4. Complete name                            : Spider.Man.Into.The.Spider.Verse.2018.BluRay.1080p.MultiAudio.DTS-HD.MA.5.1.x264-ALT.mkv
  5. Format                                   : Matroska
  6. Format version                           : Version 4
  7. File size                                : 13.3 GiB
  8. Duration                                 : 1 h 56 min
  9. Overall bit rate mode                    : Variable
  10. Overall bit rate                         : 16.3 Mb/s
  11. Encoded date                             : UTC 2019-05-26 03:15:57
  12. Writing application                      : mkvmerge v8.3.0 ('Over the Horizon') 64bit
  13. Writing library                          : libebml v1.3.1 + libmatroska v1.4.2
  14. Video
  15. ID                                       : 1
  16. Format                                   : AVC
  17. Format/Info                              : Advanced Video Codec
  18. Format profile                           : [email protected]
  19. Format settings                          : CABAC / 5 Ref Frames
  20. Format settings, CABAC                   : Yes
  21. Format settings, Reference frames        : 5 frames
  22. Codec ID                                 : V_MPEG4/ISO/AVC
  23. Duration                                 : 1 h 56 min
  24. Bit rate                                 : 11.5 Mb/s
  25. Width                                    : 1 920 pixels
  26. Height                                   : 804 pixels
  27. Display aspect ratio                     : 2.40:1
  28. Frame rate mode                          : Constant
  29. Frame rate                               : 23.976 (24000/1001/53875) FPS
  30. Color space                              : YUV
  31. Chroma subsampling                       : 4:2:0
  32. Bit depth                                : 8 bits
  33. Scan type                                : Progressive
  34. Bits/(Pixel*Frame)                       : 0.311
  35. Stream size                              : 9.38 GiB (70%)
  36. Title                                    : MPEG-4 [email protected] Profile L4.1, 24/1.001 fps @ 11500 kbps
  37. Writing library                          : x264 core 157 r2969 d4099dd
  38. Encoding settings                        : cabac=1 / ref=5 / deblock=1:-3:-3 / analyse=0x3:0x133 / me=umh / subme=11 / psy=1 / psy_rd=0.60:0.00 / mixed_ref=1 / me_range=32 / chroma_me=1 / trellis=2 / 8x8dct=1 / cqm=0 / deadzone=21,11 / fast_pskip=0 / chroma_qp_offset=-2 / threads=25 / lookahead_threads=2 / sliced_threads=0 / nr=0 / decimate=0 / interlaced=0 / NTM4NzU= / bluray_compat=0 / constrained_intra=0 / bframes=6 / b_pyramid=2 / b_adapt=2 / b_bias=0 / direct=3 / weightb=1 / open_gop=0 / weightp=2 / keyint=240 / keyint_min=23 / NTM4NzU=uuDQuD2mJt9fsCf / scenecut=40 / intra_refresh=0 / rc_lookahead=60 / rc=2pass / mbtree=1 / bitrate=11500 / ratetol=1.0 / qcomp=0.60 / qpmin=0 / qpmax=69 / qpstep=4 / cplxblur=20.0 / qblur=0.5 / vbv_maxrate=45000 / vbv_bufsize=45000 / nal_hrd=none / filler=0 / NTM4NzU=LmsMAP37EqsCpk / ip_ratio=1.40 / aq=1:0.60
  39. Language                                 : English
  40. Default                                  : Yes
  41. Forced                                   : No
  42. Audio #1
  43. ID                                       : 2
  44. Format                                   : DTS XLL
  45. Format/Info                              : Digital Theater Systems
  46. Commercial name                          : DTS-HD Master Audio
  47. Codec ID                                 : A_DTS
  48. Duration                                 : 1 h 56 min
  49. Bit rate mode                            : Variable
  50. Bit rate                                 : 2 335 kb/s
  51. Channel(s)                               : 6 channels
  52. Channel layout                           : C L R Ls Rs LFE
  53. Sampling rate                            : 48.0 kHz
  54. Frame rate                               : 93.750 FPS (512 SPF)
  55. Bit depth                                : 16 bits
  56. Compression mode                         : Lossless
  57. Stream size                              : 1.91 GiB (14%)
  58. Title                                    : English DTS-HD Master Audio 5.1 @ 2320 kbps
  59. Language                                 : English
  60. Default                                  : Yes
  61. Forced                                   : No
  62. Audio #2
  63. ID                                       : 3
  64. Format                                   : AC-3
  65. Format/Info                              : Audio Coding 3
  66. Commercial name                          : Dolby Digital
  67. Codec ID                                 : A_AC3
  68. Duration                                 : 1 h 56 min
  69. Bit rate mode                            : Constant
  70. Bit rate                                 : 640 kb/s
  71. Channel(s)                               : 6 channels
  72. Channel layout                           : L R C LFE Ls Rs
  73. Sampling rate                            : 48.0 kHz
  74. Frame rate                               : 31.250 FPS (1536 SPF)
  75. Compression mode                         : Lossy
  76. Stream size                              : 535 MiB (4%)
  77. Title                                    : Cantonese Dolby Digital Audio 5.1 @ 640 kbps  粤语
  78. Language                                 : Chinese
  79. Service kind                             : Complete Main
  80. Default                                  : No
  81. Forced                                   : No
  82. Audio #3
  83. ID                                       : 4
  84. Format                                   : AC-3
  85. Format/Info                              : Audio Coding 3
  86. Commercial name                          : Dolby Digital
  87. Codec ID                                 : A_AC3
  88. Duration                                 : 1 h 56 min
  89. Bit rate mode                            : Constant
  90. Bit rate                                 : 640 kb/s
  91. Channel(s)                               : 6 channels
  92. Channel layout                           : L R C LFE Ls Rs
  93. Sampling rate                            : 48.0 kHz
  94. Frame rate                               : 31.250 FPS (1536 SPF)
  95. Compression mode                         : Lossy
  96. Stream size                              : 535 MiB (4%)
  97. Title                                    : Mandarin Dolby Digital Audio 5.1 @ 640 kbps  台配国语
  98. Language                                 : Chinese
  99. Service kind                             : Complete Main
  100. Default                                  : No
  101. Forced                                   : No
  102. Audio #4
  103. ID                                       : 5
  104. Format                                   : AC-3
  105. Format/Info                              : Audio Coding 3
  106. Commercial name                          : Dolby Digital
  107. Codec ID                                 : A_AC3
  108. Duration                                 : 1 h 56 min
  109. Bit rate mode                            : Constant
  110. Bit rate                                 : 640 kb/s
  111. Channel(s)                               : 6 channels
  112. Channel layout                           : L R C LFE Ls Rs
  113. Sampling rate                            : 48.0 kHz
  114. Frame rate                               : 31.250 FPS (1536 SPF)
  115. Compression mode                         : Lossy
  116. Stream size                              : 535 MiB (4%)
  117. Title                                    : Mandarin Dolby Digital Audio 5.1 @ 640 kbps  国语
  118. Language                                 : Chinese
  119. Service kind                             : Complete Main
  120. Default                                  : No
  121. Forced                                   : No
  122. Audio #5
  123. ID                                       : 6
  124. Format                                   : AC-3
  125. Format/Info                              : Audio Coding 3
  126. Commercial name                          : Dolby Digital
  127. Codec ID                                 : A_AC3
  128. Duration                                 : 1 h 56 min
  129. Bit rate mode                            : Constant
  130. Bit rate                                 : 192 kb/s
  131. Channel(s)                               : 2 channels
  132. Channel layout                           : L R
  133. Sampling rate                            : 48.0 kHz
  134. Frame rate                               : 31.250 FPS (1536 SPF)
  135. Compression mode                         : Lossy
  136. Stream size                              : 160 MiB (1%)
  137. Title                                    : English Dolby Digital Audio 2.0 @ 192 kbps  Commentary
  138. Language                                 : English
  139. Service kind                             : Complete Main
  140. Default                                  : No
  141. Forced                                   : No
  142. Text #1
  143. ID                                       : 7
  144. Format                                   : PGS
  145. Codec ID                                 : S_HDMV/PGS
  146. Codec ID/Info                            : Picture based subtitle format used on BDs/HD-DVDs
  147. Duration                                 : 1 h 56 min
  148. Bit rate                                 : 32.3 kb/s
  149. Count of elements                        : 2748
  150. Stream size                              : 26.9 MiB (0%)
  151. Title                                    : Eng/SUP
  152. Language                                 : English
  153. Default                                  : No
  154. Forced                                   : No
  155. Text #2
  156. ID                                       : 8
  157. Format                                   : PGS
  158. Codec ID                                 : S_HDMV/PGS
  159. Codec ID/Info                            : Picture based subtitle format used on BDs/HD-DVDs
  160. Duration                                 : 1 h 56 min
  161. Bit rate                                 : 43.8 kb/s
  162. Count of elements                        : 3720
  163. Stream size                              : 36.5 MiB (0%)
  164. Title                                    : Eng/SUP SDH
  165. Language                                 : English
  166. Default                                  : No
  167. Forced                                   : No
  168. Text #3
  169. ID                                       : 9
  170. Format                                   : PGS
  171. Codec ID                                 : S_HDMV/PGS
  172. Codec ID/Info                            : Picture based subtitle format used on BDs/HD-DVDs
  173. Duration                                 : 1 h 55 min
  174. Bit rate                                 : 27.3 kb/s
  175. Count of elements                        : 2908
  176. Stream size                              : 22.7 MiB (0%)
  177. Title                                    : Cht/SUP  原盘繁体(HK)
  178. Language                                 : Chinese
  179. Default                                  : No
  180. Forced                                   : No
  181. Text #4
  182. ID                                       : 10
  183. Format                                   : PGS
  184. Codec ID                                 : S_HDMV/PGS
  185. Codec ID/Info                            : Picture based subtitle format used on BDs/HD-DVDs
  186. Duration                                 : 1 h 55 min
  187. Bit rate                                 : 27.1 kb/s
  188. Count of elements                        : 2815
  189. Stream size                              : 22.4 MiB (0%)
  190. Title                                    : Chs/SUP  原盘简体
  191. Language                                 : Chinese
  192. Default                                  : Yes
  193. Forced                                   : No
  194. Text #5
  195. ID                                       : 11
  196. Format                                   : PGS
  197. Codec ID                                 : S_HDMV/PGS
  198. Codec ID/Info                            : Picture based subtitle format used on BDs/HD-DVDs
  199. Duration                                 : 1 h 56 min
  200. Bit rate                                 : 26.4 kb/s
  201. Count of elements                        : 2874
  202. Stream size                              : 22.1 MiB (0%)
  203. Title                                    : Cht/SUP  原盘繁体(TW)
  204. Language                                 : Chinese
  205. Default                                  : No
  206. Forced                                   : No
  207. Text #6
  208. ID                                       : 12
  209. Format                                   : PGS
  210. Codec ID                                 : S_HDMV/PGS
  211. Codec ID/Info                            : Picture based subtitle format used on BDs/HD-DVDs
  212. Duration                                 : 1 h 56 min
  213. Bit rate                                 : 80.6 kb/s
  214. Count of elements                        : 4610
  215. Stream size                              : 67.3 MiB (0%)
  216. Title                                    : Eng/SUP  Commentary
  217. Language                                 : English
  218. Default                                  : No
  219. Forced                                   : No
  220. Text #7
  221. ID                                       : 13
  222. Format                                   : PGS
  223. Codec ID                                 : S_HDMV/PGS
  224. Codec ID/Info                            : Picture based subtitle format used on BDs/HD-DVDs
  225. Duration                                 : 1 h 56 min
  226. Bit rate                                 : 49.6 kb/s
  227. Count of elements                        : 4193
  228. Stream size                              : 41.4 MiB (0%)
  229. Title                                    : Cht/SUP  原盘导评繁体(HK)
  230. Language                                 : Chinese
  231. Default                                  : No
  232. Forced                                   : No
  233. Text #8
  234. ID                                       : 14
  235. Format                                   : PGS
  236. Codec ID                                 : S_HDMV/PGS
  237. Codec ID/Info                            : Picture based subtitle format used on BDs/HD-DVDs
  238. Duration                                 : 1 h 56 min
  239. Bit rate                                 : 56.1 kb/s
  240. Count of elements                        : 4193
  241. Stream size                              : 46.9 MiB (0%)
  242. Title                                    : Chs/SUP  原盘导评简体
  243. Language                                 : Chinese
  244. Default                                  : No
  245. Forced                                   : No
  246. Text #9
  247. ID                                       : 15
  248. Format                                   : PGS
  249. Codec ID                                 : S_HDMV/PGS
  250. Codec ID/Info                            : Picture based subtitle format used on BDs/HD-DVDs
  251. Duration                                 : 1 h 56 min
  252. Bit rate                                 : 55.7 kb/s
  253. Count of elements                        : 4193
  254. Stream size                              : 46.5 MiB (0%)
  255. Title                                    : Cht/SUP  原盘导评繁体(TW)
  256. Language                                 : Chinese
  257. Default                                  : No
  258. Forced                                   : No
  259. Menu
  260. 00:00:00.000                             : en:00:00:00.000
  261. 00:09:03.793                             : en:00:09:03.793
  262. 00:14:04.719                             : en:00:14:04.719
  263. 00:18:51.714                             : en:00:18:51.714
  264. 00:29:39.027                             : en:00:29:39.027
  265. 00:34:14.636                             : en:00:34:14.636
  266. 00:40:34.432                             : en:00:40:34.432
  267. 00:44:22.827                             : en:00:44:22.827
  268. 00:48:06.884                             : en:00:48:06.884
  269. 00:58:45.855                             : en:00:58:45.855
  270. 01:06:04.460                             : en:01:06:04.460
  271. 01:09:55.483                             : en:01:09:55.483
  272. 01:20:00.003                             : en:01:20:00.003
  273. 01:24:54.923                             : en:01:24:54.923
  274. 01:33:33.399                             : en:01:33:33.399
  275. 01:55:26.920                             : en:01:55:26.920
复制代码

















保举请利用qBittorrent,utorrent,transmission等标准BT软件下载!以获得最快速度。奉求保种!





回复

使用道具 举报

蓝光币
19
发表于 3 天前 | 显示全部楼层
感谢楼主分享,谢谢
回复 支持 反对

使用道具 举报

懒得打字嘛,点击右侧快捷回复 【右侧内容,后台自定义】
您需要登录后才可以回帖 登录 | 立即加入

本版积分规则

Archiver|小黑屋| 蓝光电影网 |网站地图

Copyright © 2021 Comsenz Inc. Powered by 蓝光电影网

蓝光电影网

本站内容由用户自主分享和转载自互联网,转载目的在于传递更多信息,并不代表本网赞同其观点和对其真实性负责。

如有侵权、违反国家法律政策行为,请联系我们,我们会第一时间及时清除和处理!

举报反馈邮箱:[email protected]

快速回复 返回顶部 返回列表