找回密码

蓝光电影网

查看: 72|回复: 0

[剧情] 漂亮男孩[简繁英字幕].Beautiful.Boy.2018.1080p.AMZN.WEB-DL.H264.DDP5.1-TAGWEB 9.80GB

[复制链接]
蓝光币
8
发表于 2022-7-31 01:58:22 | 显示全部楼层 |阅读模式


◎标  题 标致男孩
◎译  名 美丽男孩(台)
◎片  名 Beautiful Boy
◎年  代 2018
◎产  地 美国
◎类  别 剧情
◎语  言 英语
◎上映日期 2018-09-07(多伦多电影节) / 2018-10-12(美国)
◎IMDb评分 7.3/10 (71726人评价)
◎IMDb链接 https://www.imdb.com/title/tt1226837/
◎豆瓣评分 6.2/10 (12740人评价)
◎豆瓣链接 https://movie.douban.com/subject/3059389/
◎片  长 120分钟
◎导  演 菲力斯·范·古宁根 Felix Van Groeningen
◎编  剧 菲力斯·范·古宁根 Felix Van Groeningen
       卢克·戴维斯 Luke Davies
       大卫·谢夫 David Sheff
       尼克·谢夫 Nic Sheff
◎演  员 史蒂夫·卡瑞尔 Steve Carell
       蒂莫西·柴勒梅德 Timothée Chalamet
       毛拉·蒂尔内 Maura Tierney
       克里斯蒂安·康佛瑞 Christian Convery
       凯特琳·德弗 Kaitlyn Dever
       艾米·莱安 Amy Ryan
       斯戴芬妮·斯考特 Stefanie Scott
       朱利安·沃克斯 Julian Works
       杰克·迪伦·格雷泽 Jack Dylan Grazer
       艾米·福赛思 Amy Forsyth
       安德烈·罗佑 Andre Royo
       曼迪娅·弗罗里 Mandeiya Flory
       蒂莫西·赫顿 Timothy Hutton
       爱德华德·弗莱彻 Edward Fletcher
       丽莎盖伊·汉密尔顿 LisaGay Hamilton
       迈克尔·帕特里克·麦克吉尔 Michael Patrick McGill
       汤姆·蔡 Tom Choi
       山姆·狄龙 Sam Dillon
       埃米·阿奎诺 Amy Aquino
       汤姆·贝耶 Tom Beyer
       朱利安·克鲁瑟 Julian Crouser
       约翰·洛巴托 John Lobato
       安东尼·斯诺 Anthony Snow
       艾蒂安·维克 Etienne Vick
       大卫·门登霍尔 David Mendenhall
       奥克莉·布尔 Oakley Bull
       Kue Lawrence Kue Lawrence
        Ricky Low
       Mary Pat Farrell Mary Pat Farrell
       杰夫·阿德勒 Jeff Adler
       Sasha Kelly Jackson Sasha Kelly Jackson
       Carlton Wilborn Carlton Wilborn
       Nikki Snipper Nikki Snipper
       Martha T. Newman Martha T. Newman
       Brooklin Thacher Brooklin Thacher
       Frederick Lawrence Frederick Lawrence
       Anastasia Leddick Anastasia Leddick
       Minerva García Minerva García
       西恩·加拉赫 Seann Gallagher
       罗德尼·J·霍布斯 Rodney J. Hobbs
       布拉德·皮特 Brad Pitt
       杰瑞米·克莱纳 Jeremy Kleiner
◎简  介
  尼克(提莫西·查拉梅 Timothée Chalamet 饰)从小就是一小我见人爱的乖孩子,他有着美丽白净的表面,活跃开畅的本性和一个聪明的大脑。门生时代,他很轻松的就获得了不菲的成就,申请了六家大学均获得了认可,获得了入学资历,每个熟悉他的人都深信这位少年有着无量的前途。                                    
                                但是,尼克的命运,从他打仗到一种名叫“大麻”的工具起头,就发生了剧烈的变化。这类可以给他带来长久刺激和幻觉的毒品很快就令尼克深陷其中,以后,不满足的尼克又从大麻转向了病毒,彻完全底的成为了一位瘾君子。为了戒毒,尼克进过戒毒所,加入过合作会,但这些尽力终极还是付之东流。
  1. ##### MediaInfo ######
  2. General
  3. Unique ID                                : 305758384540048677646171049782374482336 (0xE606EC401D65A6F3F15B2490A0CEC1A0)
  4. Complete name                            : Beautiful.Boy.2018.1080p.AMZN.WEB-DL.H264.DDP5.1-TAGWEB.mkv
  5. Format                                   : Matroska
  6. Format version                           : Version 4
  7. File size                                : 9.80 GiB
  8. Duration                                 : 2 h 0 min
  9. Overall bit rate                         : 11.7 Mb/s
  10. Encoded date                             : UTC 2022-07-16 00:37:18
  11. Writing application                      : mkvmerge v67.0.0 ('Under Stars') 64-bit
  12. Writing library                          : libebml v1.4.2 + libmatroska v1.6.4
  13. Video
  14. ID                                       : 1
  15. Format                                   : AVC
  16. Format/Info                              : Advanced Video Codec
  17. Format profile                           : [email protected]
  18. Format settings                          : CABAC / 4 Ref Frames
  19. Format settings, CABAC                   : Yes
  20. Format settings, Reference frames        : 4 frames
  21. Codec ID                                 : V_MPEG4/ISO/AVC
  22. Duration                                 : 2 h 0 min
  23. Bit rate                                 : 6 542 kb/s
  24. Width                                    : 1 920 pixels
  25. Height                                   : 1 040 pixels
  26. Display aspect ratio                     : 1.85:1
  27. Frame rate mode                          : Constant
  28. Frame rate                               : 23.976 (24000/1001/53875) FPS
  29. Color space                              : YUV
  30. Chroma subsampling                       : 4:2:0
  31. Bit depth                                : 8 bits
  32. Scan type                                : Progressive
  33. Bits/(Pixel*Frame)                       : 0.137
  34. Stream size                              : 5.49 GiB (56%)
  35. Language                                 : English
  36. Default                                  : Yes
  37. Forced                                   : No
  38. Color range                              : Limited
  39. Color primaries                          : BT.709
  40. Transfer characteristics                 : BT.709
  41. Matrix coefficients                      : BT.709
  42. Audio #1
  43. ID                                       : 2
  44. Format                                   : E-AC-3
  45. Format/Info                              : Enhanced AC-3
  46. Commercial name                          : Dolby Digital Plus
  47. Codec ID                                 : A_EAC3
  48. Duration                                 : 2 h 0 min
  49. Bit rate mode                            : Constant
  50. Bit rate                                 : 640 kb/s
  51. Channel(s)                               : 6 channels
  52. Channel layout                           : L R C LFE Ls Rs
  53. Sampling rate                            : 48.0 kHz
  54. Frame rate                               : 31.250 FPS (1536 SPF)
  55. Compression mode                         : Lossy
  56. Stream size                              : 550 MiB (5%)
  57. Title                                    : English
  58. Language                                 : English
  59. Service kind                             : Complete Main
  60. Default                                  : Yes
  61. Forced                                   : No
  62. Audio #2
  63. ID                                       : 3
  64. Format                                   : E-AC-3
  65. Format/Info                              : Enhanced AC-3
  66. Commercial name                          : Dolby Digital Plus
  67. Codec ID                                 : A_EAC3
  68. Duration                                 : 2 h 0 min
  69. Bit rate mode                            : Constant
  70. Bit rate                                 : 640 kb/s
  71. Channel(s)                               : 6 channels
  72. Channel layout                           : L R C LFE Ls Rs
  73. Sampling rate                            : 48.0 kHz
  74. Frame rate                               : 31.250 FPS (1536 SPF)
  75. Compression mode                         : Lossy
  76. Stream size                              : 550 MiB (5%)
  77. Title                                    : espa?ol
  78. Language                                 : Spanish
  79. Service kind                             : Complete Main
  80. Default                                  : No
  81. Forced                                   : No
  82. Audio #3
  83. ID                                       : 4
  84. Format                                   : E-AC-3
  85. Format/Info                              : Enhanced AC-3
  86. Commercial name                          : Dolby Digital Plus
  87. Codec ID                                 : A_EAC3
  88. Duration                                 : 2 h 0 min
  89. Bit rate mode                            : Constant
  90. Bit rate                                 : 640 kb/s
  91. Channel(s)                               : 6 channels
  92. Channel layout                           : L R C LFE Ls Rs
  93. Sampling rate                            : 48.0 kHz
  94. Frame rate                               : 31.250 FPS (1536 SPF)
  95. Compression mode                         : Lossy
  96. Stream size                              : 550 MiB (5%)
  97. Title                                    : ?e?tina
  98. Language                                 : Czech
  99. Service kind                             : Complete Main
  100. Default                                  : No
  101. Forced                                   : No
  102. Audio #4
  103. ID                                       : 5
  104. Format                                   : E-AC-3
  105. Format/Info                              : Enhanced AC-3
  106. Commercial name                          : Dolby Digital Plus
  107. Codec ID                                 : A_EAC3
  108. Duration                                 : 2 h 0 min
  109. Bit rate mode                            : Constant
  110. Bit rate                                 : 640 kb/s
  111. Channel(s)                               : 6 channels
  112. Channel layout                           : L R C LFE Ls Rs
  113. Sampling rate                            : 48.0 kHz
  114. Frame rate                               : 31.250 FPS (1536 SPF)
  115. Compression mode                         : Lossy
  116. Stream size                              : 550 MiB (5%)
  117. Title                                    : Deutsch
  118. Language                                 : German
  119. Service kind                             : Complete Main
  120. Default                                  : No
  121. Forced                                   : No
  122. Audio #5
  123. ID                                       : 6
  124. Format                                   : E-AC-3
  125. Format/Info                              : Enhanced AC-3
  126. Commercial name                          : Dolby Digital Plus
  127. Codec ID                                 : A_EAC3
  128. Duration                                 : 2 h 0 min
  129. Bit rate mode                            : Constant
  130. Bit rate                                 : 640 kb/s
  131. Channel(s)                               : 6 channels
  132. Channel layout                           : L R C LFE Ls Rs
  133. Sampling rate                            : 48.0 kHz
  134. Frame rate                               : 31.250 FPS (1536 SPF)
  135. Compression mode                         : Lossy
  136. Stream size                              : 550 MiB (5%)
  137. Title                                    : fran?ais
  138. Language                                 : French
  139. Service kind                             : Complete Main
  140. Default                                  : No
  141. Forced                                   : No
  142. Audio #6
  143. ID                                       : 7
  144. Format                                   : E-AC-3
  145. Format/Info                              : Enhanced AC-3
  146. Commercial name                          : Dolby Digital Plus
  147. Codec ID                                 : A_EAC3
  148. Duration                                 : 2 h 0 min
  149. Bit rate mode                            : Constant
  150. Bit rate                                 : 640 kb/s
  151. Channel(s)                               : 6 channels
  152. Channel layout                           : L R C LFE Ls Rs
  153. Sampling rate                            : 48.0 kHz
  154. Frame rate                               : 31.250 FPS (1536 SPF)
  155. Compression mode                         : Lossy
  156. Stream size                              : 550 MiB (5%)
  157. Title                                    : magyar
  158. Language                                 : Hungarian
  159. Service kind                             : Complete Main
  160. Default                                  : No
  161. Forced                                   : No
  162. Audio #7
  163. ID                                       : 8
  164. Format                                   : E-AC-3
  165. Format/Info                              : Enhanced AC-3
  166. Commercial name                          : Dolby Digital Plus
  167. Codec ID                                 : A_EAC3
  168. Duration                                 : 2 h 0 min
  169. Bit rate mode                            : Constant
  170. Bit rate                                 : 640 kb/s
  171. Channel(s)                               : 6 channels
  172. Channel layout                           : L R C LFE Ls Rs
  173. Sampling rate                            : 48.0 kHz
  174. Frame rate                               : 31.250 FPS (1536 SPF)
  175. Compression mode                         : Lossy
  176. Stream size                              : 550 MiB (5%)
  177. Title                                    : italiano
  178. Language                                 : Italian
  179. Service kind                             : Complete Main
  180. Default                                  : No
  181. Forced                                   : No
  182. Audio #8
  183. ID                                       : 9
  184. Format                                   : E-AC-3
  185. Format/Info                              : Enhanced AC-3
  186. Commercial name                          : Dolby Digital Plus
  187. Codec ID                                 : A_EAC3
  188. Duration                                 : 2 h 0 min
  189. Bit rate mode                            : Constant
  190. Bit rate                                 : 640 kb/s
  191. Channel(s)                               : 6 channels
  192. Channel layout                           : L R C LFE Ls Rs
  193. Sampling rate                            : 48.0 kHz
  194. Frame rate                               : 31.250 FPS (1536 SPF)
  195. Compression mode                         : Lossy
  196. Stream size                              : 550 MiB (5%)
  197. Title                                    : português
  198. Language                                 : Portuguese
  199. Service kind                             : Complete Main
  200. Default                                  : No
  201. Forced                                   : No
  202. Text #1
  203. ID                                       : 10
  204. Format                                   : UTF-8
  205. Codec ID                                 : S_TEXT/UTF8
  206. Codec ID/Info                            : UTF-8 Plain Text
  207. Duration                                 : 1 h 59 min
  208. Bit rate                                 : 37 b/s
  209. Count of elements                        : 1370
  210. Stream size                              : 32.7 KiB (0%)
  211. Title                                    : 中文 (简体)
  212. Language                                 : Chinese
  213. Default                                  : Yes
  214. Forced                                   : No
  215. Text #2
  216. ID                                       : 11
  217. Format                                   : UTF-8
  218. Codec ID                                 : S_TEXT/UTF8
  219. Codec ID/Info                            : UTF-8 Plain Text
  220. Duration                                 : 1 h 49 min
  221. Bit rate                                 : 32 b/s
  222. Count of elements                        : 1051
  223. Stream size                              : 25.8 KiB (0%)
  224. Title                                    : 中文 (繁體)
  225. Language                                 : Chinese
  226. Default                                  : No
  227. Forced                                   : No
  228. Text #3
  229. ID                                       : 12
  230. Format                                   : UTF-8
  231. Codec ID                                 : S_TEXT/UTF8
  232. Codec ID/Info                            : UTF-8 Plain Text
  233. Duration                                 : 1 h 59 min
  234. Bit rate                                 : 59 b/s
  235. Count of elements                        : 1960
  236. Stream size                              : 51.9 KiB (0%)
  237. Title                                    : English (United States)
  238. Language                                 : English
  239. Default                                  : No
  240. Forced                                   : No
  241. Text #4
  242. ID                                       : 13
  243. Format                                   : UTF-8
  244. Codec ID                                 : S_TEXT/UTF8
  245. Codec ID/Info                            : UTF-8 Plain Text
  246. Duration                                 : 1 h 49 min
  247. Bit rate                                 : 64 b/s
  248. Count of elements                        : 883
  249. Stream size                              : 51.9 KiB (0%)
  250. Title                                    : ??????? (??????)
  251. Language                                 : Arabic
  252. Default                                  : No
  253. Forced                                   : No
  254. Text #5
  255. ID                                       : 14
  256. Format                                   : UTF-8
  257. Codec ID                                 : S_TEXT/UTF8
  258. Codec ID/Info                            : UTF-8 Plain Text
  259. Duration                                 : 1 h 59 min
  260. Bit rate                                 : 37 b/s
  261. Count of elements                        : 1033
  262. Stream size                              : 33.2 KiB (0%)
  263. Title                                    : ?e?tina (?esko)
  264. Language                                 : Czech
  265. Default                                  : No
  266. Forced                                   : No
  267. Text #6
  268. ID                                       : 15
  269. Format                                   : UTF-8
  270. Codec ID                                 : S_TEXT/UTF8
  271. Codec ID/Info                            : UTF-8 Plain Text
  272. Duration                                 : 1 h 59 min
  273. Bit rate                                 : 31 b/s
  274. Count of elements                        : 754
  275. Stream size                              : 27.5 KiB (0%)
  276. Title                                    : dansk (Danmark)
  277. Language                                 : Danish
  278. Default                                  : No
  279. Forced                                   : No
  280. Text #7
  281. ID                                       : 16
  282. Format                                   : UTF-8
  283. Codec ID                                 : S_TEXT/UTF8
  284. Codec ID/Info                            : UTF-8 Plain Text
  285. Duration                                 : 1 h 59 min
  286. Bit rate                                 : 61 b/s
  287. Count of elements                        : 890
  288. Stream size                              : 54.0 KiB (0%)
  289. Title                                    : Ελληνικ? (Ελλ?δα)
  290. Language                                 : Greek
  291. Default                                  : No
  292. Forced                                   : No
  293. Text #8
  294. ID                                       : 17
  295. Format                                   : UTF-8
  296. Codec ID                                 : S_TEXT/UTF8
  297. Codec ID/Info                            : UTF-8 Plain Text
  298. Duration                                 : 1 h 49 min
  299. Bit rate                                 : 44 b/s
  300. Count of elements                        : 1263
  301. Stream size                              : 35.8 KiB (0%)
  302. Title                                    : espa?ol (Latinoamérica)
  303. Language                                 : Spanish
  304. Default                                  : No
  305. Forced                                   : No
  306. Text #9
  307. ID                                       : 18
  308. Format                                   : UTF-8
  309. Codec ID                                 : S_TEXT/UTF8
  310. Codec ID/Info                            : UTF-8 Plain Text
  311. Duration                                 : 1 h 59 min
  312. Bit rate                                 : 40 b/s
  313. Count of elements                        : 1092
  314. Stream size                              : 35.4 KiB (0%)
  315. Title                                    : espa?ol (Espa?a)
  316. Language                                 : Spanish
  317. Default                                  : No
  318. Forced                                   : No
  319. Text #10
  320. ID                                       : 19
  321. Format                                   : UTF-8
  322. Codec ID                                 : S_TEXT/UTF8
  323. Codec ID/Info                            : UTF-8 Plain Text
  324. Duration                                 : 1 h 59 min
  325. Bit rate                                 : 40 b/s
  326. Count of elements                        : 1126
  327. Stream size                              : 35.0 KiB (0%)
  328. Title                                    : suomi (Suomi)
  329. Language                                 : Finnish
  330. Default                                  : No
  331. Forced                                   : No
  332. Text #11
  333. ID                                       : 20
  334. Format                                   : UTF-8
  335. Codec ID                                 : S_TEXT/UTF8
  336. Codec ID/Info                            : UTF-8 Plain Text
  337. Duration                                 : 1 h 59 min
  338. Bit rate                                 : 40 b/s
  339. Count of elements                        : 1284
  340. Stream size                              : 35.8 KiB (0%)
  341. Title                                    : Filipino (Pilipinas)
  342. Language                                 : fil
  343. Default                                  : No
  344. Forced                                   : No
  345. Text #12
  346. ID                                       : 21
  347. Format                                   : UTF-8
  348. Codec ID                                 : S_TEXT/UTF8
  349. Codec ID/Info                            : UTF-8 Plain Text
  350. Duration                                 : 1 h 59 min
  351. Bit rate                                 : 46 b/s
  352. Count of elements                        : 1346
  353. Stream size                              : 40.5 KiB (0%)
  354. Title                                    : fran?ais (Canada)
  355. Language                                 : French
  356. Default                                  : No
  357. Forced                                   : No
  358. Text #13
  359. ID                                       : 22
  360. Format                                   : UTF-8
  361. Codec ID                                 : S_TEXT/UTF8
  362. Codec ID/Info                            : UTF-8 Plain Text
  363. Duration                                 : 1 h 59 min
  364. Bit rate                                 : 58 b/s
  365. Count of elements                        : 1360
  366. Stream size                              : 51.6 KiB (0%)
  367. Title                                    : ????? (?????)
  368. Language                                 : Hebrew
  369. Default                                  : No
  370. Forced                                   : No
  371. Text #14
  372. ID                                       : 23
  373. Format                                   : UTF-8
  374. Codec ID                                 : S_TEXT/UTF8
  375. Codec ID/Info                            : UTF-8 Plain Text
  376. Duration                                 : 1 h 59 min
  377. Bit rate                                 : 108 b/s
  378. Count of elements                        : 1370
  379. Stream size                              : 94.8 KiB (0%)
  380. Title                                    : ?????? (????)
  381. Language                                 : Hindi
  382. Default                                  : No
  383. Forced                                   : No
  384. Text #15
  385. ID                                       : 24
  386. Format                                   : UTF-8
  387. Codec ID                                 : S_TEXT/UTF8
  388. Codec ID/Info                            : UTF-8 Plain Text
  389. Duration                                 : 1 h 59 min
  390. Bit rate                                 : 37 b/s
  391. Count of elements                        : 1054
  392. Stream size                              : 32.9 KiB (0%)
  393. Title                                    : magyar (Magyarország)
  394. Language                                 : Hungarian
  395. Default                                  : No
  396. Forced                                   : No
  397. Text #16
  398. ID                                       : 25
  399. Format                                   : UTF-8
  400. Codec ID                                 : S_TEXT/UTF8
  401. Codec ID/Info                            : UTF-8 Plain Text
  402. Duration                                 : 1 h 59 min
  403. Bit rate                                 : 43 b/s
  404. Count of elements                        : 1363
  405. Stream size                              : 38.0 KiB (0%)
  406. Title                                    : bahasa Indonesia (Indonesia)
  407. Language                                 : Indonesian
  408. Default                                  : No
  409. Forced                                   : No
  410. Text #17
  411. ID                                       : 26
  412. Format                                   : UTF-8
  413. Codec ID                                 : S_TEXT/UTF8
  414. Codec ID/Info                            : UTF-8 Plain Text
  415. Duration                                 : 1 h 49 min
  416. Bit rate                                 : 33 b/s
  417. Count of elements                        : 949
  418. Stream size                              : 26.8 KiB (0%)
  419. Title                                    : italiano (Italia)
  420. Language                                 : Italian
  421. Default                                  : No
  422. Forced                                   : No
  423. Text #18
  424. ID                                       : 27
  425. Format                                   : UTF-8
  426. Codec ID                                 : S_TEXT/UTF8
  427. Codec ID/Info                            : UTF-8 Plain Text
  428. Duration                                 : 1 h 59 min
  429. Bit rate                                 : 35 b/s
  430. Count of elements                        : 1101
  431. Stream size                              : 31.4 KiB (0%)
  432. Title                                    : 日本語 (日本)
  433. Language                                 : Japanese
  434. Default                                  : No
  435. Forced                                   : No
  436. Text #19
  437. ID                                       : 28
  438. Format                                   : UTF-8
  439. Codec ID                                 : S_TEXT/UTF8
  440. Codec ID/Info                            : UTF-8 Plain Text
  441. Duration                                 : 1 h 59 min
  442. Bit rate                                 : 45 b/s
  443. Count of elements                        : 1359
  444. Stream size                              : 39.5 KiB (0%)
  445. Title                                    : ??? (????)
  446. Language                                 : Korean
  447. Default                                  : No
  448. Forced                                   : No
  449. Text #20
  450. ID                                       : 29
  451. Format                                   : UTF-8
  452. Codec ID                                 : S_TEXT/UTF8
  453. Codec ID/Info                            : UTF-8 Plain Text
  454. Duration                                 : 1 h 59 min
  455. Bit rate                                 : 45 b/s
  456. Count of elements                        : 1236
  457. Stream size                              : 40.0 KiB (0%)
  458. Title                                    : bahasa Malaysia (Malaysia)
  459. Language                                 : Malay
  460. Default                                  : No
  461. Forced                                   : No
  462. Text #21
  463. ID                                       : 30
  464. Format                                   : UTF-8
  465. Codec ID                                 : S_TEXT/UTF8
  466. Codec ID/Info                            : UTF-8 Plain Text
  467. Duration                                 : 1 h 59 min
  468. Bit rate                                 : 29 b/s
  469. Count of elements                        : 754
  470. Stream size                              : 26.1 KiB (0%)
  471. Title                                    : norsk bokm?l (Norge)
  472. Language                                 : Norwegian Bokmal
  473. Default                                  : No
  474. Forced                                   : No
  475. Text #22
  476. ID                                       : 31
  477. Format                                   : UTF-8
  478. Codec ID                                 : S_TEXT/UTF8
  479. Codec ID/Info                            : UTF-8 Plain Text
  480. Duration                                 : 1 h 59 min
  481. Bit rate                                 : 34 b/s
  482. Count of elements                        : 814
  483. Stream size                              : 30.2 KiB (0%)
  484. Title                                    : Nederlands (Nederland)
  485. Language                                 : Dutch
  486. Default                                  : No
  487. Forced                                   : No
  488. Text #23
  489. ID                                       : 32
  490. Format                                   : UTF-8
  491. Codec ID                                 : S_TEXT/UTF8
  492. Codec ID/Info                            : UTF-8 Plain Text
  493. Duration                                 : 1 h 51 min
  494. Bit rate                                 : 30 b/s
  495. Count of elements                        : 858
  496. Stream size                              : 25.0 KiB (0%)
  497. Title                                    : polski (Polska)
  498. Language                                 : Polish
  499. Default                                  : No
  500. Forced                                   : No
  501. Text #24
  502. ID                                       : 33
  503. Format                                   : UTF-8
  504. Codec ID                                 : S_TEXT/UTF8
  505. Codec ID/Info                            : UTF-8 Plain Text
  506. Duration                                 : 1 h 59 min
  507. Bit rate                                 : 41 b/s
  508. Count of elements                        : 1129
  509. Stream size                              : 36.5 KiB (0%)
  510. Title                                    : português (Brasil)
  511. Language                                 : Portuguese
  512. Default                                  : No
  513. Forced                                   : No
  514. Text #25
  515. ID                                       : 34
  516. Format                                   : UTF-8
  517. Codec ID                                 : S_TEXT/UTF8
  518. Codec ID/Info                            : UTF-8 Plain Text
  519. Duration                                 : 1 h 59 min
  520. Bit rate                                 : 38 b/s
  521. Count of elements                        : 1087
  522. Stream size                              : 33.4 KiB (0%)
  523. Title                                    : português (Portugal)
  524. Language                                 : Portuguese
  525. Default                                  : No
  526. Forced                                   : No
  527. Text #26
  528. ID                                       : 35
  529. Format                                   : UTF-8
  530. Codec ID                                 : S_TEXT/UTF8
  531. Codec ID/Info                            : UTF-8 Plain Text
  532. Duration                                 : 1 h 59 min
  533. Bit rate                                 : 42 b/s
  534. Count of elements                        : 978
  535. Stream size                              : 37.5 KiB (0%)
  536. Title                                    : roman? (Romania)
  537. Language                                 : Romanian
  538. Default                                  : No
  539. Forced                                   : No
  540. Text #27
  541. ID                                       : 36
  542. Format                                   : UTF-8
  543. Codec ID                                 : S_TEXT/UTF8
  544. Codec ID/Info                            : UTF-8 Plain Text
  545. Duration                                 : 1 h 59 min
  546. Bit rate                                 : 69 b/s
  547. Count of elements                        : 1365
  548. Stream size                              : 60.5 KiB (0%)
  549. Title                                    : русский (Россия)
  550. Language                                 : Russian
  551. Default                                  : No
  552. Forced                                   : No
  553. Text #28
  554. ID                                       : 37
  555. Format                                   : UTF-8
  556. Codec ID                                 : S_TEXT/UTF8
  557. Codec ID/Info                            : UTF-8 Plain Text
  558. Duration                                 : 1 h 59 min
  559. Bit rate                                 : 34 b/s
  560. Count of elements                        : 754
  561. Stream size                              : 29.9 KiB (0%)
  562. Title                                    : svenska (Sverige)
  563. Language                                 : Swedish
  564. Default                                  : No
  565. Forced                                   : No
  566. Text #29
  567. ID                                       : 38
  568. Format                                   : UTF-8
  569. Codec ID                                 : S_TEXT/UTF8
  570. Codec ID/Info                            : UTF-8 Plain Text
  571. Duration                                 : 1 h 59 min
  572. Bit rate                                 : 136 b/s
  573. Count of elements                        : 1361
  574. Stream size                              : 119 KiB (0%)
  575. Title                                    : ????? (???????)
  576. Language                                 : Tamil
  577. Default                                  : No
  578. Forced                                   : No
  579. Text #30
  580. ID                                       : 39
  581. Format                                   : UTF-8
  582. Codec ID                                 : S_TEXT/UTF8
  583. Codec ID/Info                            : UTF-8 Plain Text
  584. Duration                                 : 1 h 59 min
  585. Bit rate                                 : 126 b/s
  586. Count of elements                        : 1370
  587. Stream size                              : 111 KiB (0%)
  588. Title                                    : ?????? (????????)
  589. Language                                 : Telugu
  590. Default                                  : No
  591. Forced                                   : No
  592. Text #31
  593. ID                                       : 40
  594. Format                                   : UTF-8
  595. Codec ID                                 : S_TEXT/UTF8
  596. Codec ID/Info                            : UTF-8 Plain Text
  597. Duration                                 : 1 h 59 min
  598. Bit rate                                 : 100 b/s
  599. Count of elements                        : 1360
  600. Stream size                              : 88.2 KiB (0%)
  601. Title                                    : ??? (???)
  602. Language                                 : Thai
  603. Default                                  : No
  604. Forced                                   : No
  605. Text #32
  606. ID                                       : 41
  607. Format                                   : UTF-8
  608. Codec ID                                 : S_TEXT/UTF8
  609. Codec ID/Info                            : UTF-8 Plain Text
  610. Duration                                 : 1 h 49 min
  611. Bit rate                                 : 43 b/s
  612. Count of elements                        : 977
  613. Stream size                              : 34.8 KiB (0%)
  614. Title                                    : Türk?e (Türkiye)
  615. Language                                 : Turkish
  616. Default                                  : No
  617. Forced                                   : No
  618. Menu
  619. 00:00:00.000                             : en:Studio Logo
  620. 00:00:25.000                             : en:What can I do to help him?
  621. 00:02:02.000                             : en:Nic is missing again
  622. 00:06:55.000                             : en:Title Sequence
  623. 00:07:11.000                             : en:The Sheff's seek professional help
  624. 00:16:19.000                             : en:Nic and David have a heart to heart
  625. 00:24:22.000                             : en:Nic makes a big decision
  626. 00:31:22.000                             : en:Relapse is a part of recovery
  627. 00:39:08.000                             : en:David tries to understand however he can
  628. 00:46:08.000                             : en:David is just trying to keep his family together
  629. 00:53:55.000                             : en:I love you more than everything
  630. 01:00:13.000                             : en:Nic tries an LA program
  631. 01:05:21.000                             : en:Nic has a great weekend
  632. 01:15:35.000                             : en:Nic's depression creeps back in
  633. 01:22:46.000                             : en:David and Karen are having a hard time
  634. 01:35:31.000                             : en:Sometimes a person needs tough love
  635. 01:41:08.000                             : en:Miracles can happen
  636. 01:49:52.000                             : en:Acknowledgement
  637. 01:50:27.000                             : en:End Credits
复制代码

















保举请利用qBittorrent,utorrent,transmission等标准BT软件下载!以获得最快速度。奉求保种!





回复

使用道具 举报

懒得打字嘛,点击右侧快捷回复 【右侧内容,后台自定义】
您需要登录后才可以回帖 登录 | 立即加入

本版积分规则

Archiver|小黑屋| 蓝光电影网 |网站地图

Copyright © 2021 Comsenz Inc. Powered by 蓝光电影网

蓝光电影网

本站内容由用户自主分享和转载自互联网,转载目的在于传递更多信息,并不代表本网赞同其观点和对其真实性负责。

如有侵权、违反国家法律政策行为,请联系我们,我们会第一时间及时清除和处理!

举报反馈邮箱:[email protected]

快速回复 返回顶部 返回列表