找回密码

蓝光电影网

查看: 48|回复: 0

[剧情] 恶到必除[中文字幕/国语音轨].Punish.Evil.2022.1080p.WEB-DL.H265.DDP-TAGWEB 1.91GB

[复制链接]
蓝光币
7
发表于 2022-7-31 01:58:41 | 显示全部楼层 |阅读模式


◎标  题 恶到必除
◎译  名 Punish Evil
◎年  代 2022
◎产  地 中国大陆
◎类  别 剧情 / 犯罪
◎语  言 汉语普通话
◎上映日期 2022-07-28(中国大陆收集)
◎IMDb链接 https://www.imdb.com/title//
◎豆瓣链接 https://movie.douban.com/subject/36017416/
◎导  演 姜晓通 Xiaotong Jiang
◎编  剧 史倩 Qian Shi
◎演  员 赵达 Da Zhao
       邹兆龙 Collin Chou
       肖涵 Han Xiao
       彭敬慈 Samuel Pang
       王炳翔 Bingxiang Wang
       辛悦 Yue Xin
◎简  介
  《恶到必除》是一部报告上世纪九十年月我国公安机关,众志成城、强强结合冲击违法犯罪活动、蔓延社会正义的警匪行动影片。 上世纪90年月的南方一座名为滨海的小城市持续发生多起使人发指的凶残劫案,为人朴直不阿的北方公安徐正阳来到来到滨海支援当地刑侦队长宋海侦破案件,面临具有高明反侦察才能以及凶残属性的猖狂的庄志强劫匪团体,两人各自觉挥所长,履历一番斗智斗勇的对决后,终极一举消灭以庄志强为首的悍匪团体。
  1. ##### MediaInfo ######
  2. General
  3. Unique ID                                : 62172745235753325299817003405305239765 (0x2EC609016355C4C5A2062278A56CD8D5)
  4. Complete name                            : Punish.Evil.2022.1080p.WEB-DL.H265.DDP-TAGWEB.mkv
  5. Format                                   : Matroska
  6. Format version                           : Version 4
  7. File size                                : 1.91 GiB
  8. Duration                                 : 1 h 25 min
  9. Overall bit rate                         : 3 215 kb/s
  10. Encoded date                             : UTC 2022-07-28 09:24:10
  11. Writing application                      : mkvmerge v68.0.0 ('The Curtain') 64-bit
  12. Writing library                          : libebml v1.4.2 + libmatroska v1.6.4
  13. Video
  14. ID                                       : 1
  15. Format                                   : HEVC
  16. Format/Info                              : High Efficiency Video Coding
  17. Format profile                           : [email protected]@Main
  18. Codec ID                                 : V_MPEGH/ISO/HEVC
  19. Duration                                 : 1 h 25 min
  20. Bit rate                                 : 2 767 kb/s
  21. Width                                    : 1 920 pixels
  22. Height                                   : 816 pixels
  23. Display aspect ratio                     : 2.35:1
  24. Frame rate mode                          : Constant
  25. Frame rate                               : 24.000 FPS
  26. Color space                              : YUV
  27. Chroma subsampling                       : 4:2:0
  28. Bit depth                                : 8 bits
  29. Bits/(Pixel*Frame)                       : 0.074
  30. Stream size                              : 1.65 GiB (86%)
  31. Language                                 : Chinese
  32. Default                                  : Yes
  33. Forced                                   : No
  34. Audio #1
  35. ID                                       : 2
  36. Format                                   : E-AC-3
  37. Format/Info                              : Enhanced AC-3
  38. Commercial name                          : Dolby Digital Plus
  39. Codec ID                                 : A_EAC3
  40. Duration                                 : 1 h 25 min
  41. Bit rate mode                            : Constant
  42. Bit rate                                 : 256 kb/s
  43. Channel(s)                               : 2 channels
  44. Channel layout                           : L R
  45. Sampling rate                            : 48.0 kHz
  46. Frame rate                               : 31.250 FPS (1536 SPF)
  47. Compression mode                         : Lossy
  48. Stream size                              : 156 MiB (8%)
  49. Language                                 : Chinese
  50. Service kind                             : Complete Main
  51. Default                                  : Yes
  52. Forced                                   : No
  53. Audio #2
  54. ID                                       : 3
  55. Format                                   : AAC LC
  56. Format/Info                              : Advanced Audio Codec Low Complexity
  57. Codec ID                                 : A_AAC-2
  58. Duration                                 : 1 h 25 min
  59. Bit rate                                 : 192 kb/s
  60. Channel(s)                               : 2 channels
  61. Channel layout                           : L R
  62. Sampling rate                            : 44.1 kHz
  63. Frame rate                               : 43.066 FPS (1024 SPF)
  64. Compression mode                         : Lossy
  65. Stream size                              : 116 MiB (6%)
  66. Language                                 : Chinese
  67. Default                                  : No
  68. Forced                                   : No
复制代码

















保举请利用qBittorrent,utorrent,transmission等标准BT软件下载!以获得最快速度。奉求保种!





回复

使用道具 举报

懒得打字嘛,点击右侧快捷回复 【右侧内容,后台自定义】
您需要登录后才可以回帖 登录 | 立即加入

本版积分规则

Archiver|小黑屋| 蓝光电影网 |网站地图

Copyright © 2021 Comsenz Inc. Powered by 蓝光电影网

蓝光电影网

本站内容由用户自主分享和转载自互联网,转载目的在于传递更多信息,并不代表本网赞同其观点和对其真实性负责。

如有侵权、违反国家法律政策行为,请联系我们,我们会第一时间及时清除和处理!

举报反馈邮箱:[email protected]

快速回复 返回顶部 返回列表