找回密码

蓝光电影网

查看: 35|回复: 0

[剧情] 蜘蛛侠[共3部合集][国英多音轨/简繁英特效字幕].Spider.Man.Trilogy.2002-2007.4K.Remastered.BluRay.1080p.2Audio.DTS-HD.MA5.1.x265.10bit-ALT 40.65GB

[复制链接]
蓝光币
7
发表于 2022-7-31 01:58:28 | 显示全部楼层 |阅读模式


◎标  题 蜘蛛侠
◎译  名 蜘蛛人(台)
◎片  名 Spider-Man
◎年  代 2002
◎产  地 美国
◎类  别 行动 / 科幻 / 冒险
◎语  言 英语
◎上映日期 2002-08-07(中国大陆) / 2002-05-03(美国)
◎IMDb评分 7.3/10 (738759人评价)
◎IMDb链接 https://www.imdb.com/title/tt0145487/
◎豆瓣评分 7.9/10 (322574人评价)
◎豆瓣链接 https://movie.douban.com/subject/1306612/
◎片  长 121 分钟
◎导  演 山姆·雷米 Sam Raimi
◎编  剧 大卫·凯普 David Koepp
       斯坦·李 Stan Lee
       史蒂夫·迪特寇 Steve Ditko
◎演  员 托比·马奎尔 Tobey Maguire
       威廉·达福 Willem Dafoe
       克斯汀·邓斯特 Kirsten Dunst
       詹姆斯·弗兰科 James Franco
       克里夫·罗伯逊 Cliff Robertson
       罗斯玛丽·哈里斯 Rosemary Harris
       J·K·西蒙斯 J.K. Simmons
       乔·曼根尼罗 Joe Manganiello
       格里·贝克尔 Gerry Becker
       比尔·努恩 Bill Nunn
       杰克·贝茨 Jack Betts
       斯坦利·安德森 Stanley Anderson
       罗恩·帕金斯 Ron Perkins
       迈克尔·帕帕约翰 Michael Papajohn
       布鲁斯·坎贝尔 Bruce Campbell
       斯坦·李 Stan Lee
       伊丽莎白·班克斯 Elizabeth Banks
       奥克塔维亚·斯宾瑟 Octavia Spencer
       露西·劳莱丝 Lucy Lawless
       莎拉·拉米尔兹 Sara Ramirez
       宾尼·尤奎德兹 Benny Urquidez
       斯科特·斯皮格尔 Scott Spiegel
       吉姆·诺顿 Jim Norton
       杰西·巴托克 Jayce Bartok
       金锋 Feng Jin
       阿什丽·艾德纳 Ashley Edner
       罗伯特·科尔曼 Robert Kerman
       彼得·阿佩尔 Peter Appel
       杰西·海曼 Jesse Heiman
       席尔瓦·克莱吉安 Sylva Kelegian
       泰德·雷米 Ted Raimi
       玛西·格雷 Macy Gray
       迈克·沃特福德 Myk Watford
       Tammi Sutton Tammi Sutton
       Lou Torres Lou Torres
       Jillian Clare Jillian Clare
       Jacob Chambers Jacob Chambers
       兰迪·霍尔 Randy Hall
       菲利普·吴 Philip Ng
       Kristen Marie Holly Kristen Marie Holly
       克劳迪娅·卡茨 Claudia Katz
       Derek C. Wallace Derek C. Wallace
       阿杰·梅赫塔 Ajay Mehta
       Lance Polland Lance Polland
       Sean Valla Sean Valla
       Jophery C. Brown Jophery C. Brown
       Alex Black Alex Black
       Andy Bray Andy Bray
       布拉德·格伦伯格 Brad Grunberg
       Jill Sayre Jill Sayre
       兰迪·萨瓦格 Randy Savage
       杰森·帕德格特 Jason Padgett
       Joy Michelle Moore Joy Michelle Moore
       David Holcomb David Holcomb
       Al Goto Al Goto
       Shane Habberstad Shane Habberstad
       比尔·卡尔弗特 Bill Calvert
       洛伦·简斯 Loren Janes
       Andray Johnson Andray Johnson
       拉里·约书亚 Larry Joshua
       Juan M. Guerra Juan M. Guerra
       Ari Averbach Ari Averbach
        Patrick Coleman Duncan
        Cody Cundiff
        Richard Stephens
        Marcus Gorman
       瑞克·艾弗里 Rick Avery
       Gary Otto Gary Otto
       Margaret Baker Margaret Baker
       John Wojnowski III John Wojnowski III
       Erica D. Porter Erica D. Porter
       Camille Bennett Camille Bennett
       Leroy Patterson Leroy Patterson
       Peter Genovese Peter Genovese
       萨默·雷石东 Sumner Redstone
       Justin Neill Justin Neill
       R.C. Everbeck R.C. Everbeck
       斯坦·李 Stan Lee
       劳拉·泽斯金 Laura Ziskin
       史蒂文·P·塞塔 Steven P. Saeta
       海迪·弗尤格曼 Heidi Fugeman
       伊安·布莱斯 Ian Bryce
       丹尼·艾夫曼 Danny Elfman
       德里克·惠布利 Deryck Whibley
       唐·伯吉斯 Don Burgess
       鲍勃·穆拉夫斯基 Bob Murawski
       弗兰辛·梅思勒 Francine Maisler
       Lynn Kressel Lynn Kressel
       Tony Fanning Tony Fanning
       凯伦·奥哈拉 Karen O'Hara
       詹姆斯·艾奇逊 James Acheson
       黛博拉·拉·米亚·德内弗 Deborah La Mia Denaver
       Wade Daily Wade Daily
       Carolyn Elias Carolyn Elias
       汤姆·伍德鲁夫 Tom Woodruff Jr.
       Karen Westerfield Karen Westerfield
       金伯利·斯皮特里 Kimberley Spiteri
       Bill Myer Bill Myer
       Janice Alexander Janice Alexander
       迈克尔·杰曼 Michael Germain
       Elaina P. Schulman Elaina P. Schulman
       Barbara Wilder Barbara Wilder
       Gary Archer Gary Archer
       Lumas Hamilton Jr. Lumas Hamilton Jr.
       Jeff Habberstad Jeff Habberstad
       Lisa C. Satriano Lisa C. Satriano
       巴克·德洛姆 Bac DeLorme
       Nick Satriano Nick Satriano
       安东尼·拉默里纳拉 Anthony LaMolinara
       胡升忠 Sing-Choong Foo
       杰奎·巴恩布鲁克 Jacquie Barnbrook
       约翰·戴克斯特拉 John Dykstra
       格雷戈里·克里泽 Gregory Creaser
       Lydia Bottegoni Lydia Bottegoni
       斯宾塞·库克 Spencer Cook
       Greg Derochie Greg Derochie
       科林·德罗布尼斯 Colin Drobnis
       Daniel Eaton Daniel Eaton
       Fish Essenfeld Fish Essenfeld
       斯科特·斯多克迪克 Scott Stokdyk
       Chris Antonini Chris Antonini
       Brett Gassaway Brett Gassaway
       Anthony Ceccomancini Anthony Ceccomancini
       Patrick Murphy Patrick Murphy
       Chris B. Schnitzer Chris B. Schnitzer
       Messrob Torikian Messrob Torikian
       Matt Dessero Matt Dessero
       James Waterhouse James Waterhouse
       Jeff Olm Jeff Olm
       Erica Hornung Erica Hornung
       Christopher D. Williams Christopher D. Williams
       福尔图纳托·弗拉塔西奥 Fortunato Frattasio
       吉姆·戈尔曼 Jim Gorman
       雷·麦金太尔 Ray McIntyre Jr.
       Dan Abrams Dan Abrams
       安东尼·哈里斯 Anthony Harris
       John E. Sasaki John E. Sasaki
       Earl Wiggins Earl Wiggins
       杰夫·沃尔弗顿 Jeff Wolverton
       John Monos John Monos
       Danny Dimian Danny Dimian
       Alex Grau Alex Grau
       彼得·诺弗兹 Peter Nofz
       凯伦·E·戈勒卡斯 Karen E. Goulekas
       迪昂·哈奇 Dion Hatch
       Pedram Goshtasbpour Pedram Goshtasbpour
       卡尔·胡珀 Carl Hooper
       Leigh-Alexandra Jacob Leigh-Alexandra Jacob
       Bruno Vilela Bruno Vilela
       克里斯·琼恩 Chris Juen
       Daniel Kramer Daniel Kramer
       布拉德·库恩 Brad Kuehn
       丹·格列齐斯 Dan Trezise
◎标  签 科幻 / 蜘蛛侠 / 美国 / 行动 / 漫画改编 / 美国电影 / 超级豪杰 / 2002
◎简  介
  彼得 帕克(托比•马奎尔 Tobey Maguire 饰)只是美国一个普通的高中生,当一次他被蜘蛛博物馆偷跑出来的变种蜘蛛咬了一口以后,彼得的生活完全改变了。他变得和蜘蛛一样,具有各类蜘蛛独有的超才能:从手指喷出粘力极强的蜘蛛丝、飞檐走壁等等。彼得兴奋异常,起头操纵自己的超才能去赢利。但当他最爱的叔叔被自己放走的罪犯杀死后,彼得立誓要用自己的超才能去冲击犯罪。                                    
                                彼得好友哈利的父亲诺曼(威廉•达福 Willem Dafoe 饰)是一家生物科技公司的老板,因自己公司生产的飞翔器没获得军方领袖欣赏而忧心不胜。一次意外诺曼吸出神经毒气而具有了超才能,激发了本身邪恶的赋性,骑着自己研发的飞翔器去向处破坏、杀人。彼得化身的蜘蛛侠起头反击了!
  1. 合集文件列表:
  2. 1.Spider.Man.2.2004.4K.Remastered.BluRay.1080p.2Audio.DTS-HD.MA5.1.x265.10bit-ALT.mkv 12.34GB
  3. 2.Spider.Man.3.2007.4K.Remastered.BluRay.1080p.2Audio.DTS-HD.MA5.1.x265.10bit-ALT.mkv 14.65GB
  4. 3.Spider.Man.2002.4K.Remastered.BluRay.1080p.2Audio.DTS-HD.MA5.1.x265.10bit-ALT.mkv 13.66GB
复制代码
  1. ##### MediaInfo ######
  2. General
  3. Unique ID                                : 244341527010114907827050798640852740495 (0xB7D27762E27101968FC144804205A98F)
  4. Complete name                            : Spider.Man.2.2004.4K.Remastered.BluRay.1080p.2Audio.DTS-HD.MA5.1.x265.10bit-ALT.mkv
  5. Format                                   : Matroska
  6. Format version                           : Version 4
  7. File size                                : 12.3 GiB
  8. Duration                                 : 2 h 7 min
  9. Overall bit rate mode                    : Variable
  10. Overall bit rate                         : 13.9 Mb/s
  11. Encoded date                             : UTC 2022-01-27 03:37:12
  12. Writing application                      : mkvmerge v49.0.0 ('Sick Of Losing Soulmates') 64-bit
  13. Writing library                          : libebml v1.4.0 + libmatroska v1.6.1
  14. Video
  15. ID                                       : 1
  16. Format                                   : HEVC
  17. Format/Info                              : High Efficiency Video Coding
  18. Format profile                           : Main [email protected]@High
  19. Codec ID                                 : V_MPEGH/ISO/HEVC
  20. Duration                                 : 2 h 7 min
  21. Bit rate                                 : 10.7 Mb/s
  22. Width                                    : 1 920 pixels
  23. Height                                   : 802 pixels
  24. Display aspect ratio                     : 2.40:1
  25. Frame rate mode                          : Constant
  26. Frame rate                               : 23.976 (24000/1001/53875) FPS
  27. Color space                              : YUV
  28. Chroma subsampling                       : 4:2:0
  29. Bit depth                                : 10 bits
  30. Bits/(Pixel*Frame)                       : 0.289
  31. Stream size                              : 9.49 GiB (77%)
  32. Title                                    : HEVC, [email protected]@High, 24/1.001 fps @ 10661 kbps
  33. Writing library                          : x265 3.4+14-gd419c7152:[Windows][GCC 10.2.0][64 bit] 10bit
  34. Encoding settings                        : cpuid=538751111039 / frame-threads=4 / numa-pools=16 / wpp / pmode / pme / no-psnr / no-ssim / log-level=2 / input-csp=1 / input-res=1920x802 / interlace=0 / total-frames=183372 / level-idc=51 / high-tier=1 / uhd-bd=0 / ref=5 / no-allow-non-conformance / no-repeat-headers / annexb / no-aud / no-hrd / info / hash=0 / no-temporal-layers / open-gop / min-keyint=24 / keyint=240 / gop-lookahead=0 / bframes=6 / b-adapt=2 / b-pyramid / bframe-bias=0 / rc-lookahead=40 / lookahead-slices=0 / NTM4NzU=uuDQuD2mJt9fsCf / scenecut=40 / hist-scenecut=0 / radl=0 / no-splice / no-intra-refresh / ctu=32 / min-cu-size=8 / no-rect / no-amp / max-tu-size=32 / tu-inter-depth=3 / tu-intra-depth=3 / limit-tu=4 / rdoq-level=2 / dynamic-rd=0.00 / no-ssim-rd / signhide / no-tskip / nr-intra=0 / nr-inter=0 / no-constrained-intra / no-strong-intra-smoothing / max-merge=4 / limit-refs=1 / limit-modes / me=3 / subme=4 / merange=25 / temporal-mvp / no-frame-dup / no-hme / weightp / weightb / no-analyze-src-pics / deblock=-3:-3 / no-sao / no-sao-non-deblock / rd=6 / selective-sao=0 / no-early-skip / rskip / no-fast-intra / no-tskip-fast / no-cu-lossless / b-intra / no-splitrd-skip / rdpenalty=0 / psy-rd=2.00 / psy-rdoq=1.00 / no-rd-refine / no-lossless / cbqpoffs=0 / crqpoffs=0 / rc=crf / crf=18.5 / qcomp=0.65 / qpstep=4 / stats-write=0 / stats-read=0 / vbv-maxrate=80000 / vbv-bufsize=80000 / vbv-init=0.9 / crf-max=0.0 / crf-min=0.0 / ipratio=1.40 / pbratio=1.30 / aq-mode=2 / aq-strength=0.85 / cutree / zone-count=0 / no-strict-cbr / qg-size=32 / no-rc-grain / qpmax=69 / qpmin=0 / no-const-vbv / sar=1 / overscan=0 / videoformat=5 / range=0 / colorprim=1 / transfer=1 / colormatrix=1 / chromaloc=0 / display-window=0 / cll=0,0 / min-luma=0 / max-luma=1023 / log2-max-poc-lsb=8 / vui-timing-info / vui-hrd-info / slices=1 / no-opt-qp-pps / no-opt-ref-list-length-pps / no-multi-pass-opt-rps / scenecut-bias=0.05 / hist-threshold=0.03 / no-opt-cu-delta-qp / no-aq-motion / no-hdr10 / no-hdr10-opt / no-dhdr10-opt / no-idr-recovery-sei / analysis-reuse-level=0 / analysis-save-reuse-level=0 / analysis-load-reuse-level=0 / scale-factor=0 / refine-intra=0 / refine-inter=0 / refine-mv=1 / refine-ctu-distortion=0 / no-limit-sao / ctu-info=0 / no-lowpass-dct / refine-analysis-type=0 / copy-pic=1 / max-ausize-factor=1.0 / no-dynamic-refine / no-single-sei / no-hevc-aq / no-svt / no-field / qp-adaptation-range=1.00 / no-scenecut-aware-qpconformance-window-offsets / right=0 / bottom=0 / NTM4NzU= / decoder-max-rate=0
  35. Language                                 : English
  36. Default                                  : Yes
  37. Forced                                   : No
  38. Color range                              : Limited
  39. Color primaries                          : BT.709
  40. Transfer characteristics                 : BT.709
  41. Matrix coefficients                      : BT.709
  42. Audio #1
  43. ID                                       : 2
  44. Format                                   : DTS XLL
  45. Format/Info                              : Digital Theater Systems
  46. Commercial name                          : DTS-HD Master Audio
  47. Codec ID                                 : A_DTS
  48. Duration                                 : 2 h 7 min
  49. Bit rate mode                            : Variable
  50. Bit rate                                 : 2 342 kb/s
  51. Channel(s)                               : 6 channels
  52. Channel layout                           : C L R Ls Rs LFE
  53. Sampling rate                            : 48.0 kHz
  54. Frame rate                               : 93.750 FPS (512 SPF)
  55. Bit depth                                : 16 bits
  56. Compression mode                         : Lossless
  57. Stream size                              : 2.08 GiB (17%)
  58. Title                                    : English DTS-HD Master Audio 5.1 @ 2342 kbps
  59. Language                                 : English
  60. Default                                  : Yes
  61. Forced                                   : No
  62. Audio #2
  63. ID                                       : 3
  64. Format                                   : DTS
  65. Format/Info                              : Digital Theater Systems
  66. Codec ID                                 : A_DTS
  67. Duration                                 : 2 h 7 min
  68. Bit rate mode                            : Constant
  69. Bit rate                                 : 754 kb/s
  70. Channel(s)                               : 6 channels
  71. Channel layout                           : C L R Ls Rs LFE
  72. Sampling rate                            : 48.0 kHz
  73. Frame rate                               : 93.750 FPS (512 SPF)
  74. Bit depth                                : 24 bits
  75. Compression mode                         : Lossy
  76. Stream size                              : 688 MiB (5%)
  77. Title                                    : Mandarin DTS 5.1 @ 768 kbps
  78. Language                                 : Chinese
  79. Default                                  : No
  80. Forced                                   : No
  81. Text #1
  82. ID                                       : 4
  83. Format                                   : PGS
  84. Codec ID                                 : S_HDMV/PGS
  85. Codec ID/Info                            : Picture based subtitle format used on BDs/HD-DVDs
  86. Duration                                 : 1 h 58 min
  87. Bit rate                                 : 22.1 kb/s
  88. Count of elements                        : 2188
  89. Stream size                              : 18.8 MiB (0%)
  90. Title                                    : Eng/SUP
  91. Language                                 : English
  92. Default                                  : No
  93. Forced                                   : No
  94. Text #2
  95. ID                                       : 5
  96. Format                                   : PGS
  97. Codec ID                                 : S_HDMV/PGS
  98. Codec ID/Info                            : Picture based subtitle format used on BDs/HD-DVDs
  99. Duration                                 : 2 h 5 min
  100. Bit rate                                 : 17.3 kb/s
  101. Count of elements                        : 2720
  102. Stream size                              : 15.6 MiB (0%)
  103. Title                                    : Eng/SUP  SDH
  104. Language                                 : English
  105. Default                                  : No
  106. Forced                                   : No
  107. Text #3
  108. ID                                       : 6
  109. Format                                   : PGS
  110. Codec ID                                 : S_HDMV/PGS
  111. Codec ID/Info                            : Picture based subtitle format used on BDs/HD-DVDs
  112. Duration                                 : 2 h 0 min
  113. Bit rate                                 : 11.7 kb/s
  114. Count of elements                        : 2172
  115. Stream size                              : 10.1 MiB (0%)
  116. Title                                    : Chs/SUP  简体殊效
  117. Language                                 : Chinese
  118. Default                                  : Yes
  119. Forced                                   : No
  120. Text #4
  121. ID                                       : 7
  122. Format                                   : PGS
  123. Codec ID                                 : S_HDMV/PGS
  124. Codec ID/Info                            : Picture based subtitle format used on BDs/HD-DVDs
  125. Duration                                 : 2 h 0 min
  126. Bit rate                                 : 12.0 kb/s
  127. Count of elements                        : 2172
  128. Stream size                              : 10.4 MiB (0%)
  129. Title                                    : Cht/SUP  繁体殊效
  130. Language                                 : Chinese
  131. Default                                  : No
  132. Forced                                   : No
  133. Text #5
  134. ID                                       : 8
  135. Format                                   : PGS
  136. Codec ID                                 : S_HDMV/PGS
  137. Codec ID/Info                            : Picture based subtitle format used on BDs/HD-DVDs
  138. Duration                                 : 2 h 0 min
  139. Bit rate                                 : 22.2 kb/s
  140. Count of elements                        : 2172
  141. Stream size                              : 19.2 MiB (0%)
  142. Title                                    : Chs/SUP  简英殊效
  143. Language                                 : Chinese
  144. Default                                  : No
  145. Forced                                   : No
  146. Text #6
  147. ID                                       : 9
  148. Format                                   : PGS
  149. Codec ID                                 : S_HDMV/PGS
  150. Codec ID/Info                            : Picture based subtitle format used on BDs/HD-DVDs
  151. Duration                                 : 2 h 0 min
  152. Bit rate                                 : 22.6 kb/s
  153. Count of elements                        : 2172
  154. Stream size                              : 19.5 MiB (0%)
  155. Title                                    : Cht/SUP  繁英殊效
  156. Language                                 : Chinese
  157. Default                                  : No
  158. Forced                                   : No
  159. Menu
  160. 00:00:00.000                             : en:第 01 章
  161. 00:03:27.457                             : en:第 02 章
  162. 00:07:24.903                             : en:第 03 章
  163. 00:08:52.824                             : en:第 04 章
  164. 00:10:06.314                             : en:第 05 章
  165. 00:14:28.951                             : en:第 06 章
  166. 00:17:07.443                             : en:第 07 章
  167. 00:18:55.551                             : en:第 08 章
  168. 00:22:12.498                             : en:第 09 章
  169. 00:22:50.536                             : en:第 10 章
  170. 00:24:23.712                             : en:第 11 章
  171. 00:26:22.122                             : en:第 12 章
  172. 00:28:27.581                             : en:第 13 章
  173. 00:29:35.065                             : en:第 14 章
  174. 00:31:03.653                             : en:第 15 章
  175. 00:33:09.863                             : en:第 16 章
  176. 00:39:50.513                             : en:第 17 章
  177. 00:41:50.758                             : en:第 18 章
  178. 00:43:09.128                             : en:第 19 章
  179. 00:44:40.219                             : en:第 20 章
  180. 00:46:57.231                             : en:第 21 章
  181. 00:50:01.165                             : en:第 22 章
  182. 00:53:02.262                             : en:第 23 章
  183. 00:58:04.773                             : en:第 24 章
  184. 00:59:36.281                             : en:第 25 章
  185. 01:00:01.473                             : en:第 26 章
  186. 01:01:31.271                             : en:第 27 章
  187. 01:03:40.400                             : en:第 28 章
  188. 01:05:24.420                             : en:第 29 章
  189. 01:08:14.424                             : en:第 30 章
  190. 01:09:40.676                             : en:第 31 章
  191. 01:13:48.424                             : en:第 32 章
  192. 01:16:42.348                             : en:第 33 章
  193. 01:19:16.168                             : en:第 34 章
  194. 01:21:25.964                             : en:第 35 章
  195. 01:25:16.194                             : en:第 36 章
  196. 01:26:49.371                             : en:第 37 章
  197. 01:28:11.286                             : en:第 38 章
  198. 01:30:40.143                             : en:第 39 章
  199. 01:33:05.163                             : en:第 40 章
  200. 01:34:12.772                             : en:第 41 章
  201. 01:35:10.872                             : en:第 42 章
  202. 01:37:12.368                             : en:第 43 章
  203. 01:39:56.449                             : en:第 44 章
  204. 01:42:38.611                             : en:第 45 章
  205. 01:44:52.828                             : en:第 46 章
  206. 01:48:03.644                             : en:第 47 章
  207. 01:53:07.614                             : en:第 48 章
  208. 01:55:30.173                             : en:第 49 章
  209. 01:57:56.903                             : en:第 50 章
  210. 02:01:54.474                             : en:第 51 章
  211. 02:02:44.148                             : en:第 52 章
复制代码

















保举请利用qBittorrent,utorrent,transmission等标准BT软件下载!以获得最快速度。奉求保种!





回复

使用道具 举报

懒得打字嘛,点击右侧快捷回复 【右侧内容,后台自定义】
您需要登录后才可以回帖 登录 | 立即加入

本版积分规则

Archiver|小黑屋| 蓝光电影网 |网站地图

Copyright © 2021 Comsenz Inc. Powered by 蓝光电影网

蓝光电影网

本站内容由用户自主分享和转载自互联网,转载目的在于传递更多信息,并不代表本网赞同其观点和对其真实性负责。

如有侵权、违反国家法律政策行为,请联系我们,我们会第一时间及时清除和处理!

举报反馈邮箱:[email protected]

快速回复 返回顶部 返回列表