找回密码

蓝光电影网

查看: 14|回复: 0

[剧情] 救命解药[简繁英字幕].A.Cure.for.Wellness.2016.1080p.AMZN.WEB-DL.H264.DDP5.1-TAGWEB 9.99GB

[复制链接]
蓝光币
7
发表于 2022-7-31 01:58:42 | 显示全部楼层 |阅读模式


◎标  题 拯救解药
◎译  名 治愈健康 / 药到命除(港)
◎片  名 A Cure for Wellness
◎年  代 2016
◎产  地 美国 / 德国
◎类  别 悬疑 / 惊悚
◎语  言 英语 / 德语
◎上映日期 2016-12-10(BNAT电影节) / 2017-02-17(美国)
◎IMDb评分 6.4/10 (92660人评价)
◎IMDb链接 https://www.imdb.com/title/tt4731136/
◎豆瓣评分 7.1/10 (26417人评价)
◎豆瓣链接 https://movie.douban.com/subject/26363201/
◎片  长 146分钟
◎导  演 戈尔·维宾斯基 Gore Verbinski
◎编  剧 贾斯汀·海瑟 Justin Haythe
       戈尔·维宾斯基 Gore Verbinski
◎演  员 戴恩·德哈恩 Dane DeHaan
       詹森·艾萨克 Jason Isaacs
       米娅·高斯 Mia Goth
       伊沃·南迪 Ivo Nandi
       阿德里安·席勒 Adrian Schiller
       西莉亚·伊姆里 Celia Imrie
       哈里·格罗内尔 Harry Groener
       托马斯·诺尔斯特洛姆 Tomas Norström
       阿肖克·曼当那 Ashok Mandanna
       马格努斯·克雷佩 Magnus Krepper
       彼得·本尼迪克 Peter Benedict
       米歇尔·门德尔 Michael Mendl
       玛姬·斯蒂德 Maggie Steed
       克雷格·威尔 Craig Wroe
       大卫·毕逊斯 David Bishins
       丽莎·贝恩斯 Lisa Banes
       卡尔·卢波利 Carl Lumbly
       伦纳德·昆兹 Leonard Kunz
       娜塔莉亚·伯布里希 Natalia Bobrich
       苏珊娜·伍艾斯特 Susanne Wuest
       约翰内斯·克里施 Johannes Krisch
       杰夫·伯勒尔 Jeff Burrell
       茱蒂斯·霍尔什奇 Judith Hoersch
◎标  签 惊悚 / 悬疑 / 可骇 / 美国 / 心理 / 剧情 / 超自然 / 人性
◎简  介
    洛哈特(戴恩·德哈恩 Dane DeHaan 饰)被派往位于阿尔卑斯山的一间疗养院中,接回在此疗养的公司CEO。在回程的路上,洛哈特遭受了车祸,左腿骨折,无法之下,他只得在疗养院中临时逗留养病。在疗养院中,洛哈特结识了奥秘的少女汉娜(米娅·高斯 Mia Goth 饰)。                                                                      疗养院中诡异的氛围和洛哈特四周发生的持续不断的科学没法诠释的事务让洛哈特起头对疗养院的经营性质发生了思疑。汉娜和主治医生福尔摩(詹森·艾萨克 Jason Isaacs 饰)之间的暗昧关系更让洛哈特发觉到事务的不纯真。终究,洛哈特看破了隐藏在这间疗养院当中的奥秘,与此同时,他的噩梦也起头了。
  1. ##### MediaInfo ######
  2. General
  3. Unique ID                                : 213395634967288853745080299854903891646 (0xA08A811C5400492DD023F5B1CC33D6BE)
  4. Complete name                            : A.Cure.for.Wellness.2016.1080p.AMZN.WEB-DL.H264.DDP5.1-TAGWEB.mkv
  5. Format                                   : Matroska
  6. Format version                           : Version 4
  7. File size                                : 9.99 GiB
  8. Duration                                 : 2 h 28 min
  9. Overall bit rate                         : 9 640 kb/s
  10. Encoded date                             : UTC 2022-07-16 03:29:30
  11. Writing application                      : mkvmerge v67.0.0 ('Under Stars') 64-bit
  12. Writing library                          : libebml v1.4.2 + libmatroska v1.6.4
  13. Video
  14. ID                                       : 1
  15. Format                                   : AVC
  16. Format/Info                              : Advanced Video Codec
  17. Format profile                           : [email protected]
  18. Format settings                          : CABAC / 4 Ref Frames
  19. Format settings, CABAC                   : Yes
  20. Format settings, Reference frames        : 4 frames
  21. Codec ID                                 : V_MPEG4/ISO/AVC
  22. Duration                                 : 2 h 28 min
  23. Bit rate                                 : 4 514 kb/s
  24. Width                                    : 1 920 pixels
  25. Height                                   : 1 080 pixels
  26. Display aspect ratio                     : 16:9
  27. Frame rate mode                          : Constant
  28. Frame rate                               : 23.976 (24000/1001/53875) FPS
  29. Color space                              : YUV
  30. Chroma subsampling                       : 4:2:0
  31. Bit depth                                : 8 bits
  32. Scan type                                : Progressive
  33. Bits/(Pixel*Frame)                       : 0.091
  34. Stream size                              : 4.68 GiB (47%)
  35. Language                                 : English
  36. Default                                  : Yes
  37. Forced                                   : No
  38. Color range                              : Limited
  39. Color primaries                          : BT.709
  40. Transfer characteristics                 : BT.709
  41. Matrix coefficients                      : BT.709
  42. Audio #1
  43. ID                                       : 2
  44. Format                                   : E-AC-3
  45. Format/Info                              : Enhanced AC-3
  46. Commercial name                          : Dolby Digital Plus
  47. Codec ID                                 : A_EAC3
  48. Duration                                 : 2 h 28 min
  49. Bit rate mode                            : Constant
  50. Bit rate                                 : 640 kb/s
  51. Channel(s)                               : 6 channels
  52. Channel layout                           : L R C LFE Ls Rs
  53. Sampling rate                            : 48.0 kHz
  54. Frame rate                               : 31.250 FPS (1536 SPF)
  55. Compression mode                         : Lossy
  56. Stream size                              : 679 MiB (7%)
  57. Title                                    : English
  58. Language                                 : English
  59. Service kind                             : Complete Main
  60. Default                                  : Yes
  61. Forced                                   : No
  62. Audio #2
  63. ID                                       : 3
  64. Format                                   : E-AC-3
  65. Format/Info                              : Enhanced AC-3
  66. Commercial name                          : Dolby Digital Plus
  67. Codec ID                                 : A_EAC3
  68. Duration                                 : 2 h 28 min
  69. Bit rate mode                            : Constant
  70. Bit rate                                 : 640 kb/s
  71. Channel(s)                               : 6 channels
  72. Channel layout                           : L R C LFE Ls Rs
  73. Sampling rate                            : 48.0 kHz
  74. Frame rate                               : 31.250 FPS (1536 SPF)
  75. Compression mode                         : Lossy
  76. Stream size                              : 679 MiB (7%)
  77. Title                                    : espa?ol
  78. Language                                 : Spanish
  79. Service kind                             : Complete Main
  80. Default                                  : No
  81. Forced                                   : No
  82. Audio #3
  83. ID                                       : 4
  84. Format                                   : E-AC-3
  85. Format/Info                              : Enhanced AC-3
  86. Commercial name                          : Dolby Digital Plus
  87. Codec ID                                 : A_EAC3
  88. Duration                                 : 2 h 28 min
  89. Bit rate mode                            : Constant
  90. Bit rate                                 : 640 kb/s
  91. Channel(s)                               : 6 channels
  92. Channel layout                           : L R C LFE Ls Rs
  93. Sampling rate                            : 48.0 kHz
  94. Frame rate                               : 31.250 FPS (1536 SPF)
  95. Compression mode                         : Lossy
  96. Stream size                              : 679 MiB (7%)
  97. Title                                    : Deutsch
  98. Language                                 : German
  99. Service kind                             : Complete Main
  100. Default                                  : No
  101. Forced                                   : No
  102. Audio #4
  103. ID                                       : 5
  104. Format                                   : E-AC-3
  105. Format/Info                              : Enhanced AC-3
  106. Commercial name                          : Dolby Digital Plus
  107. Codec ID                                 : A_EAC3
  108. Duration                                 : 2 h 28 min
  109. Bit rate mode                            : Constant
  110. Bit rate                                 : 640 kb/s
  111. Channel(s)                               : 6 channels
  112. Channel layout                           : L R C LFE Ls Rs
  113. Sampling rate                            : 48.0 kHz
  114. Frame rate                               : 31.250 FPS (1536 SPF)
  115. Compression mode                         : Lossy
  116. Stream size                              : 679 MiB (7%)
  117. Title                                    : fran?ais
  118. Language                                 : French
  119. Service kind                             : Complete Main
  120. Default                                  : No
  121. Forced                                   : No
  122. Audio #5
  123. ID                                       : 6
  124. Format                                   : E-AC-3
  125. Format/Info                              : Enhanced AC-3
  126. Commercial name                          : Dolby Digital Plus
  127. Codec ID                                 : A_EAC3
  128. Duration                                 : 2 h 28 min
  129. Bit rate mode                            : Constant
  130. Bit rate                                 : 640 kb/s
  131. Channel(s)                               : 6 channels
  132. Channel layout                           : L R C LFE Ls Rs
  133. Sampling rate                            : 48.0 kHz
  134. Frame rate                               : 31.250 FPS (1536 SPF)
  135. Compression mode                         : Lossy
  136. Stream size                              : 679 MiB (7%)
  137. Title                                    : italiano
  138. Language                                 : Italian
  139. Service kind                             : Complete Main
  140. Default                                  : No
  141. Forced                                   : No
  142. Audio #6
  143. ID                                       : 7
  144. Format                                   : E-AC-3
  145. Format/Info                              : Enhanced AC-3
  146. Commercial name                          : Dolby Digital Plus
  147. Codec ID                                 : A_EAC3
  148. Duration                                 : 2 h 28 min
  149. Bit rate mode                            : Constant
  150. Bit rate                                 : 640 kb/s
  151. Channel(s)                               : 6 channels
  152. Channel layout                           : L R C LFE Ls Rs
  153. Sampling rate                            : 48.0 kHz
  154. Frame rate                               : 31.250 FPS (1536 SPF)
  155. Compression mode                         : Lossy
  156. Stream size                              : 679 MiB (7%)
  157. Title                                    : polski
  158. Language                                 : Polish
  159. Service kind                             : Complete Main
  160. Default                                  : No
  161. Forced                                   : No
  162. Audio #7
  163. ID                                       : 8
  164. Format                                   : E-AC-3
  165. Format/Info                              : Enhanced AC-3
  166. Commercial name                          : Dolby Digital Plus
  167. Codec ID                                 : A_EAC3
  168. Duration                                 : 2 h 28 min
  169. Bit rate mode                            : Constant
  170. Bit rate                                 : 640 kb/s
  171. Channel(s)                               : 6 channels
  172. Channel layout                           : L R C LFE Ls Rs
  173. Sampling rate                            : 48.0 kHz
  174. Frame rate                               : 31.250 FPS (1536 SPF)
  175. Compression mode                         : Lossy
  176. Stream size                              : 679 MiB (7%)
  177. Title                                    : português
  178. Language                                 : Portuguese
  179. Service kind                             : Complete Main
  180. Default                                  : No
  181. Forced                                   : No
  182. Audio #8
  183. ID                                       : 9
  184. Format                                   : E-AC-3
  185. Format/Info                              : Enhanced AC-3
  186. Commercial name                          : Dolby Digital Plus
  187. Codec ID                                 : A_EAC3
  188. Duration                                 : 2 h 28 min
  189. Bit rate mode                            : Constant
  190. Bit rate                                 : 640 kb/s
  191. Channel(s)                               : 6 channels
  192. Channel layout                           : L R C LFE Ls Rs
  193. Sampling rate                            : 48.0 kHz
  194. Frame rate                               : 31.250 FPS (1536 SPF)
  195. Compression mode                         : Lossy
  196. Stream size                              : 679 MiB (7%)
  197. Title                                    : Türk?e
  198. Language                                 : Turkish
  199. Service kind                             : Complete Main
  200. Default                                  : No
  201. Forced                                   : No
  202. Text #1
  203. ID                                       : 10
  204. Format                                   : UTF-8
  205. Codec ID                                 : S_TEXT/UTF8
  206. Codec ID/Info                            : UTF-8 Plain Text
  207. Duration                                 : 2 h 18 min
  208. Bit rate                                 : 31 b/s
  209. Count of elements                        : 1273
  210. Stream size                              : 31.6 KiB (0%)
  211. Title                                    : 中文 (简体)
  212. Language                                 : Chinese
  213. Default                                  : Yes
  214. Forced                                   : No
  215. Text #2
  216. ID                                       : 11
  217. Format                                   : UTF-8
  218. Codec ID                                 : S_TEXT/UTF8
  219. Codec ID/Info                            : UTF-8 Plain Text
  220. Duration                                 : 2 h 18 min
  221. Bit rate                                 : 28 b/s
  222. Count of elements                        : 1257
  223. Stream size                              : 28.6 KiB (0%)
  224. Title                                    : 中文 (繁體)
  225. Language                                 : Chinese
  226. Default                                  : No
  227. Forced                                   : No
  228. Text #3
  229. ID                                       : 12
  230. Format                                   : UTF-8
  231. Codec ID                                 : S_TEXT/UTF8
  232. Codec ID/Info                            : UTF-8 Plain Text
  233. Duration                                 : 2 h 18 min
  234. Bit rate                                 : 34 b/s
  235. Count of elements                        : 1218
  236. Stream size                              : 35.2 KiB (0%)
  237. Title                                    : English (United States)
  238. Language                                 : English
  239. Default                                  : No
  240. Forced                                   : No
  241. Text #4
  242. ID                                       : 13
  243. Format                                   : UTF-8
  244. Codec ID                                 : S_TEXT/UTF8
  245. Codec ID/Info                            : UTF-8 Plain Text
  246. Duration                                 : 2 h 18 min
  247. Bit rate                                 : 46 b/s
  248. Count of elements                        : 1214
  249. Stream size                              : 46.8 KiB (0%)
  250. Title                                    : ??????? (??????)
  251. Language                                 : Arabic
  252. Default                                  : No
  253. Forced                                   : No
  254. Text #5
  255. ID                                       : 14
  256. Format                                   : UTF-8
  257. Codec ID                                 : S_TEXT/UTF8
  258. Codec ID/Info                            : UTF-8 Plain Text
  259. Duration                                 : 2 h 18 min
  260. Bit rate                                 : 30 b/s
  261. Count of elements                        : 1211
  262. Stream size                              : 31.4 KiB (0%)
  263. Title                                    : ?e?tina (?esko)
  264. Language                                 : Czech
  265. Default                                  : No
  266. Forced                                   : No
  267. Text #6
  268. ID                                       : 15
  269. Format                                   : UTF-8
  270. Codec ID                                 : S_TEXT/UTF8
  271. Codec ID/Info                            : UTF-8 Plain Text
  272. Duration                                 : 2 h 17 min
  273. Bit rate                                 : 34 b/s
  274. Count of elements                        : 909
  275. Stream size                              : 34.2 KiB (0%)
  276. Title                                    : dansk (Danmark)
  277. Language                                 : Danish
  278. Default                                  : No
  279. Forced                                   : No
  280. Text #7
  281. ID                                       : 16
  282. Format                                   : UTF-8
  283. Codec ID                                 : S_TEXT/UTF8
  284. Codec ID/Info                            : UTF-8 Plain Text
  285. Duration                                 : 2 h 16 min
  286. Bit rate                                 : 37 b/s
  287. Count of elements                        : 1130
  288. Stream size                              : 37.4 KiB (0%)
  289. Title                                    : Deutsch (Deutschland)
  290. Language                                 : German
  291. Default                                  : No
  292. Forced                                   : No
  293. Text #8
  294. ID                                       : 17
  295. Format                                   : UTF-8
  296. Codec ID                                 : S_TEXT/UTF8
  297. Codec ID/Info                            : UTF-8 Plain Text
  298. Duration                                 : 2 h 18 min
  299. Bit rate                                 : 65 b/s
  300. Count of elements                        : 1218
  301. Stream size                              : 65.8 KiB (0%)
  302. Title                                    : Ελληνικ? (Ελλ?δα)
  303. Language                                 : Greek
  304. Default                                  : No
  305. Forced                                   : No
  306. Text #9
  307. ID                                       : 18
  308. Format                                   : UTF-8
  309. Codec ID                                 : S_TEXT/UTF8
  310. Codec ID/Info                            : UTF-8 Plain Text
  311. Duration                                 : 2 h 18 min
  312. Bit rate                                 : 33 b/s
  313. Count of elements                        : 1204
  314. Stream size                              : 34.2 KiB (0%)
  315. Title                                    : espa?ol (Latinoamérica)
  316. Language                                 : Spanish
  317. Default                                  : No
  318. Forced                                   : No
  319. Text #10
  320. ID                                       : 19
  321. Format                                   : UTF-8
  322. Codec ID                                 : S_TEXT/UTF8
  323. Codec ID/Info                            : UTF-8 Plain Text
  324. Duration                                 : 2 h 23 min
  325. Bit rate                                 : 33 b/s
  326. Count of elements                        : 1215
  327. Stream size                              : 35.5 KiB (0%)
  328. Title                                    : espa?ol (Espa?a)
  329. Language                                 : Spanish
  330. Default                                  : No
  331. Forced                                   : No
  332. Text #11
  333. ID                                       : 20
  334. Format                                   : UTF-8
  335. Codec ID                                 : S_TEXT/UTF8
  336. Codec ID/Info                            : UTF-8 Plain Text
  337. Duration                                 : 2 h 17 min
  338. Bit rate                                 : 30 b/s
  339. Count of elements                        : 1207
  340. Stream size                              : 30.8 KiB (0%)
  341. Title                                    : suomi (Suomi)
  342. Language                                 : Finnish
  343. Default                                  : No
  344. Forced                                   : No
  345. Text #12
  346. ID                                       : 21
  347. Format                                   : UTF-8
  348. Codec ID                                 : S_TEXT/UTF8
  349. Codec ID/Info                            : UTF-8 Plain Text
  350. Duration                                 : 2 h 18 min
  351. Bit rate                                 : 36 b/s
  352. Count of elements                        : 1165
  353. Stream size                              : 36.7 KiB (0%)
  354. Title                                    : Filipino (Pilipinas)
  355. Language                                 : fil
  356. Default                                  : No
  357. Forced                                   : No
  358. Text #13
  359. ID                                       : 22
  360. Format                                   : UTF-8
  361. Codec ID                                 : S_TEXT/UTF8
  362. Codec ID/Info                            : UTF-8 Plain Text
  363. Duration                                 : 2 h 18 min
  364. Bit rate                                 : 32 b/s
  365. Count of elements                        : 1196
  366. Stream size                              : 33.2 KiB (0%)
  367. Title                                    : fran?ais (France)
  368. Language                                 : French
  369. Default                                  : No
  370. Forced                                   : No
  371. Text #14
  372. ID                                       : 23
  373. Format                                   : UTF-8
  374. Codec ID                                 : S_TEXT/UTF8
  375. Codec ID/Info                            : UTF-8 Plain Text
  376. Duration                                 : 2 h 18 min
  377. Bit rate                                 : 46 b/s
  378. Count of elements                        : 1217
  379. Stream size                              : 47.4 KiB (0%)
  380. Title                                    : ????? (?????)
  381. Language                                 : Hebrew
  382. Default                                  : No
  383. Forced                                   : No
  384. Text #15
  385. ID                                       : 24
  386. Format                                   : UTF-8
  387. Codec ID                                 : S_TEXT/UTF8
  388. Codec ID/Info                            : UTF-8 Plain Text
  389. Duration                                 : 2 h 18 min
  390. Bit rate                                 : 87 b/s
  391. Count of elements                        : 1217
  392. Stream size                              : 88.4 KiB (0%)
  393. Title                                    : ?????? (????)
  394. Language                                 : Hindi
  395. Default                                  : No
  396. Forced                                   : No
  397. Text #16
  398. ID                                       : 25
  399. Format                                   : UTF-8
  400. Codec ID                                 : S_TEXT/UTF8
  401. Codec ID/Info                            : UTF-8 Plain Text
  402. Duration                                 : 2 h 18 min
  403. Bit rate                                 : 34 b/s
  404. Count of elements                        : 1213
  405. Stream size                              : 34.9 KiB (0%)
  406. Title                                    : magyar (Magyarország)
  407. Language                                 : Hungarian
  408. Default                                  : No
  409. Forced                                   : No
  410. Text #17
  411. ID                                       : 26
  412. Format                                   : UTF-8
  413. Codec ID                                 : S_TEXT/UTF8
  414. Codec ID/Info                            : UTF-8 Plain Text
  415. Duration                                 : 2 h 18 min
  416. Bit rate                                 : 35 b/s
  417. Count of elements                        : 1302
  418. Stream size                              : 36.1 KiB (0%)
  419. Title                                    : bahasa Indonesia (Indonesia)
  420. Language                                 : Indonesian
  421. Default                                  : No
  422. Forced                                   : No
  423. Text #18
  424. ID                                       : 27
  425. Format                                   : UTF-8
  426. Codec ID                                 : S_TEXT/UTF8
  427. Codec ID/Info                            : UTF-8 Plain Text
  428. Duration                                 : 2 h 17 min
  429. Bit rate                                 : 34 b/s
  430. Count of elements                        : 1209
  431. Stream size                              : 35.0 KiB (0%)
  432. Title                                    : italiano (Italia)
  433. Language                                 : Italian
  434. Default                                  : No
  435. Forced                                   : No
  436. Text #19
  437. ID                                       : 28
  438. Format                                   : UTF-8
  439. Codec ID                                 : S_TEXT/UTF8
  440. Codec ID/Info                            : UTF-8 Plain Text
  441. Duration                                 : 2 h 23 min
  442. Bit rate                                 : 28 b/s
  443. Count of elements                        : 1166
  444. Stream size                              : 30.3 KiB (0%)
  445. Title                                    : 日本語 (日本)
  446. Language                                 : Japanese
  447. Default                                  : No
  448. Forced                                   : No
  449. Text #20
  450. ID                                       : 29
  451. Format                                   : UTF-8
  452. Codec ID                                 : S_TEXT/UTF8
  453. Codec ID/Info                            : UTF-8 Plain Text
  454. Duration                                 : 2 h 18 min
  455. Bit rate                                 : 34 b/s
  456. Count of elements                        : 1214
  457. Stream size                              : 34.5 KiB (0%)
  458. Title                                    : ??? (????)
  459. Language                                 : Korean
  460. Default                                  : No
  461. Forced                                   : No
  462. Text #21
  463. ID                                       : 30
  464. Format                                   : UTF-8
  465. Codec ID                                 : S_TEXT/UTF8
  466. Codec ID/Info                            : UTF-8 Plain Text
  467. Duration                                 : 2 h 18 min
  468. Bit rate                                 : 37 b/s
  469. Count of elements                        : 1219
  470. Stream size                              : 38.3 KiB (0%)
  471. Title                                    : bahasa Malaysia (Malaysia)
  472. Language                                 : Malay
  473. Default                                  : No
  474. Forced                                   : No
  475. Text #22
  476. ID                                       : 31
  477. Format                                   : UTF-8
  478. Codec ID                                 : S_TEXT/UTF8
  479. Codec ID/Info                            : UTF-8 Plain Text
  480. Duration                                 : 2 h 17 min
  481. Bit rate                                 : 32 b/s
  482. Count of elements                        : 1207
  483. Stream size                              : 32.6 KiB (0%)
  484. Title                                    : norsk bokm?l (Norge)
  485. Language                                 : Norwegian Bokmal
  486. Default                                  : No
  487. Forced                                   : No
  488. Text #23
  489. ID                                       : 32
  490. Format                                   : UTF-8
  491. Codec ID                                 : S_TEXT/UTF8
  492. Codec ID/Info                            : UTF-8 Plain Text
  493. Duration                                 : 2 h 23 min
  494. Bit rate                                 : 29 b/s
  495. Count of elements                        : 1023
  496. Stream size                              : 31.0 KiB (0%)
  497. Title                                    : Nederlands (Nederland)
  498. Language                                 : Dutch
  499. Default                                  : No
  500. Forced                                   : No
  501. Text #24
  502. ID                                       : 33
  503. Format                                   : UTF-8
  504. Codec ID                                 : S_TEXT/UTF8
  505. Codec ID/Info                            : UTF-8 Plain Text
  506. Duration                                 : 2 h 24 min
  507. Bit rate                                 : 27 b/s
  508. Count of elements                        : 1198
  509. Stream size                              : 29.1 KiB (0%)
  510. Title                                    : polski (Polska)
  511. Language                                 : Polish
  512. Default                                  : No
  513. Forced                                   : No
  514. Text #25
  515. ID                                       : 34
  516. Format                                   : UTF-8
  517. Codec ID                                 : S_TEXT/UTF8
  518. Codec ID/Info                            : UTF-8 Plain Text
  519. Duration                                 : 2 h 17 min
  520. Bit rate                                 : 30 b/s
  521. Count of elements                        : 1189
  522. Stream size                              : 30.3 KiB (0%)
  523. Title                                    : português (Brasil)
  524. Language                                 : Portuguese
  525. Default                                  : No
  526. Forced                                   : No
  527. Text #26
  528. ID                                       : 35
  529. Format                                   : UTF-8
  530. Codec ID                                 : S_TEXT/UTF8
  531. Codec ID/Info                            : UTF-8 Plain Text
  532. Duration                                 : 2 h 17 min
  533. Bit rate                                 : 36 b/s
  534. Count of elements                        : 1212
  535. Stream size                              : 36.5 KiB (0%)
  536. Title                                    : português (Portugal)
  537. Language                                 : Portuguese
  538. Default                                  : No
  539. Forced                                   : No
  540. Text #27
  541. ID                                       : 36
  542. Format                                   : UTF-8
  543. Codec ID                                 : S_TEXT/UTF8
  544. Codec ID/Info                            : UTF-8 Plain Text
  545. Duration                                 : 2 h 18 min
  546. Bit rate                                 : 35 b/s
  547. Count of elements                        : 1216
  548. Stream size                              : 35.5 KiB (0%)
  549. Title                                    : roman? (Romania)
  550. Language                                 : Romanian
  551. Default                                  : No
  552. Forced                                   : No
  553. Text #28
  554. ID                                       : 37
  555. Format                                   : UTF-8
  556. Codec ID                                 : S_TEXT/UTF8
  557. Codec ID/Info                            : UTF-8 Plain Text
  558. Duration                                 : 2 h 23 min
  559. Bit rate                                 : 54 b/s
  560. Count of elements                        : 1209
  561. Stream size                              : 57.8 KiB (0%)
  562. Title                                    : русский (Россия)
  563. Language                                 : Russian
  564. Default                                  : No
  565. Forced                                   : No
  566. Text #29
  567. ID                                       : 38
  568. Format                                   : UTF-8
  569. Codec ID                                 : S_TEXT/UTF8
  570. Codec ID/Info                            : UTF-8 Plain Text
  571. Duration                                 : 2 h 17 min
  572. Bit rate                                 : 33 b/s
  573. Count of elements                        : 1205
  574. Stream size                              : 34.0 KiB (0%)
  575. Title                                    : svenska (Sverige)
  576. Language                                 : Swedish
  577. Default                                  : No
  578. Forced                                   : No
  579. Text #30
  580. ID                                       : 39
  581. Format                                   : UTF-8
  582. Codec ID                                 : S_TEXT/UTF8
  583. Codec ID/Info                            : UTF-8 Plain Text
  584. Duration                                 : 2 h 18 min
  585. Bit rate                                 : 82 b/s
  586. Count of elements                        : 1116
  587. Stream size                              : 83.7 KiB (0%)
  588. Title                                    : ??? (???)
  589. Language                                 : Thai
  590. Default                                  : No
  591. Forced                                   : No
  592. Text #31
  593. ID                                       : 40
  594. Format                                   : UTF-8
  595. Codec ID                                 : S_TEXT/UTF8
  596. Codec ID/Info                            : UTF-8 Plain Text
  597. Duration                                 : 2 h 18 min
  598. Bit rate                                 : 34 b/s
  599. Count of elements                        : 1206
  600. Stream size                              : 34.7 KiB (0%)
  601. Title                                    : Türk?e (Türkiye)
  602. Language                                 : Turkish
  603. Default                                  : No
  604. Forced                                   : No
  605. Menu
  606. 00:00:00.000                             : en:Studio Logo
  607. 00:00:34.000                             : en:Scene 2
  608. 00:03:26.000                             : en:Title Sequence
  609. 00:03:38.000                             : en:Scene 4
  610. 00:05:13.000                             : en:Scene 5
  611. 00:06:29.000                             : en:Scene 6
  612. 00:18:15.000                             : en:Scene 7
  613. 00:29:18.000                             : en:Scene 8
  614. 00:47:14.000                             : en:Scene 9
  615. 00:59:18.000                             : en:Scene 10
  616. 01:00:16.000                             : en:Scene 11
  617. 01:16:47.000                             : en:Scene 12
  618. 01:29:15.000                             : en:Scene 13
  619. 01:43:35.000                             : en:Scene 14
  620. 01:59:29.000                             : en:Scene 15
  621. 02:20:00.000                             : en:End Credits
复制代码

















保举请利用qBittorrent,utorrent,transmission等标准BT软件下载!以获得最快速度。奉求保种!





回复

使用道具 举报

懒得打字嘛,点击右侧快捷回复 【右侧内容,后台自定义】
您需要登录后才可以回帖 登录 | 立即加入

本版积分规则

Archiver|小黑屋| 蓝光电影网 |网站地图

Copyright © 2021 Comsenz Inc. Powered by 蓝光电影网

蓝光电影网

本站内容由用户自主分享和转载自互联网,转载目的在于传递更多信息,并不代表本网赞同其观点和对其真实性负责。

如有侵权、违反国家法律政策行为,请联系我们,我们会第一时间及时清除和处理!

举报反馈邮箱:[email protected]

快速回复 返回顶部 返回列表