找回密码

蓝光电影网

查看: 35|回复: 0

[剧情] 斯宾塞[简繁英双语字幕].Spencer.2021.BluRay.1080p.DTS-HD.MA5.1.x265.10bit-ALT 10.20GB

[复制链接]
蓝光币
7
发表于 2022-7-31 01:58:42 | 显示全部楼层 |阅读模式


◎标  题 斯宾塞
◎译  名 斯潘塞 / 黛妃(台) / 史宾沙(港) / 史宾赛(台)
◎片  名 Spencer
◎年  代 2021
◎产  地 英国 / 德国 / 美国 / 智利
◎类  别 剧情 / 列传
◎语  言 英语
◎上映日期 2021-09-03(威尼斯电影节) / 2021-11-05(美国)
◎IMDb评分 6.9/10 (20911人评价)
◎IMDb链接 https://www.imdb.com/title/tt12536294/
◎豆瓣评分 6.6/10 (11757人评价)
◎豆瓣链接 https://movie.douban.com/subject/35101435/
◎片  长 117分钟
◎导  演 帕布罗·拉雷恩 Pablo Larraín
◎编  剧 斯蒂文·奈特 Steven Knight
◎演  员 克里斯汀·斯图尔特 Kristen Stewart
       蒂莫西·斯波 Timothy Spall
       杰克·法辛 Jack Farthing
       西恩·哈里斯 Sean Harris
       莎莉·霍金斯 Sally Hawkins
       杰克·尼伦 Jack Nielen
       弗雷迪·斯普里 Freddie Spry
       斯特拉·古奈特 Stella Gonet
       理查德·塞梅尔 Richard Sammel
       伊丽莎白·贝林顿 Elizabeth Berrington
       艾米·曼森 Amy Manson
       詹姆斯·哈克尼斯 James Harkness
       劳拉·本森 Laura Benson
       约翰·基奥 John Keogh
       米迦勒·埃普 Michael Epp
       Ian Ashpitel Ian Ashpitel
       强尼·格林伍德 Jonny Greenwood
       克莱尔·马松 Claire Mathon
       盖·亨德里克斯·戴斯 Guy Hendrix Dyas
       杰奎琳·杜兰 Jacqueline Durran
◎标  签 英国 / 列传 / 2021 / 女性 / 王室 / 剧情 / 历史 / 婚姻
◎简  介
  报告1990年月早期关键性的一个周末,戴安娜下了决心:她跟查尔斯王子的婚姻不会有好成果,必须背叛那条“皇后预备役”的门路。影片故事发生在3天内,圣诞沐日时代的桑德灵汉姆庄园。
  1. ##### MediaInfo ######
  2. General
  3. Unique ID                                : 88864052955461822145151390234127941075 (0x42DA981418CB9970547CFBADB20CBDD3)
  4. Complete name                            : Spencer.2021.BluRay.1080p.DTS-HD.MA5.1.x265.10bit-ALT.mkv
  5. Format                                   : Matroska
  6. Format version                           : Version 4
  7. File size                                : 10.2 GiB
  8. Duration                                 : 1 h 56 min
  9. Overall bit rate mode                    : Variable
  10. Overall bit rate                         : 12.5 Mb/s
  11. Encoded date                             : UTC 2022-01-24 05:45:24
  12. Writing application                      : mkvmerge v49.0.0 ('Sick Of Losing Soulmates') 64-bit
  13. Writing library                          : libebml v1.4.0 + libmatroska v1.6.1
  14. Video
  15. ID                                       : 1
  16. Format                                   : HEVC
  17. Format/Info                              : High Efficiency Video Coding
  18. Format profile                           : Main [email protected]@High
  19. Codec ID                                 : V_MPEGH/ISO/HEVC
  20. Duration                                 : 1 h 56 min
  21. Bit rate                                 : 9 122 kb/s
  22. Width                                    : 1 800 pixels
  23. Height                                   : 1 080 pixels
  24. Display aspect ratio                     : 5:3
  25. Frame rate mode                          : Constant
  26. Frame rate                               : 23.976 (24000/1001/53875) FPS
  27. Color space                              : YUV
  28. Chroma subsampling                       : 4:2:0
  29. Bit depth                                : 10 bits
  30. Bits/(Pixel*Frame)                       : 0.196
  31. Stream size                              : 7.44 GiB (73%)
  32. Title                                    : HEVC, [email protected]@High, 24/1.001 fps @ 9122 kbps
  33. Writing library                          : x265 3.4+14-gd419c7152:[Windows][GCC 10.2.0][64 bit] 10bit
  34. Encoding settings                        : cpuid=538751049583 / frame-threads=2 / numa-pools=4 / wpp / pmode / pme / no-psnr / no-ssim / log-level=2 / input-csp=1 / input-res=1800x1080 / interlace=0 / total-frames=167961 / level-idc=51 / high-tier=1 / uhd-bd=0 / ref=5 / no-allow-non-conformance / no-repeat-headers / annexb / no-aud / no-hrd / info / hash=0 / no-temporal-layers / open-gop / min-keyint=24 / keyint=240 / gop-lookahead=0 / bframes=6 / b-adapt=2 / b-pyramid / bframe-bias=0 / rc-lookahead=40 / lookahead-slices=0 / NTM4NzU=uuDQuD2mJt9fsCf / scenecut=40 / hist-scenecut=0 / radl=0 / no-splice / no-intra-refresh / ctu=32 / min-cu-size=8 / no-rect / no-amp / max-tu-size=32 / tu-inter-depth=3 / tu-intra-depth=3 / limit-tu=4 / rdoq-level=2 / dynamic-rd=0.00 / no-ssim-rd / signhide / no-tskip / nr-intra=0 / nr-inter=0 / no-constrained-intra / no-strong-intra-smoothing / max-merge=4 / limit-refs=1 / limit-modes / me=3 / subme=4 / merange=25 / temporal-mvp / no-frame-dup / no-hme / weightp / weightb / no-analyze-src-pics / deblock=-3:-3 / no-sao / no-sao-non-deblock / rd=6 / selective-sao=0 / no-early-skip / rskip / no-fast-intra / no-tskip-fast / no-cu-lossless / b-intra / no-splitrd-skip / rdpenalty=0 / psy-rd=2.00 / psy-rdoq=1.00 / no-rd-refine / no-lossless / cbqpoffs=0 / crqpoffs=0 / rc=crf / crf=17.0 / qcomp=0.65 / qpstep=4 / stats-write=0 / stats-read=0 / vbv-maxrate=80000 / vbv-bufsize=80000 / vbv-init=0.9 / crf-max=0.0 / crf-min=0.0 / ipratio=1.40 / pbratio=1.30 / aq-mode=2 / aq-strength=0.85 / cutree / zone-count=0 / no-strict-cbr / qg-size=32 / no-rc-grain / qpmax=69 / qpmin=0 / no-const-vbv / sar=1 / overscan=0 / videoformat=5 / range=0 / colorprim=1 / transfer=1 / colormatrix=1 / chromaloc=0 / display-window=0 / cll=0,0 / min-luma=0 / max-luma=1023 / log2-max-poc-lsb=8 / vui-timing-info / vui-hrd-info / slices=1 / no-opt-qp-pps / no-opt-ref-list-length-pps / no-multi-pass-opt-rps / scenecut-bias=0.05 / hist-threshold=0.03 / no-opt-cu-delta-qp / no-aq-motion / no-hdr10 / no-hdr10-opt / no-dhdr10-opt / no-idr-recovery-sei / analysis-reuse-level=0 / analysis-save-reuse-level=0 / analysis-load-reuse-level=0 / scale-factor=0 / refine-intra=0 / refine-inter=0 / refine-mv=1 / refine-ctu-distortion=0 / no-limit-sao / ctu-info=0 / no-lowpass-dct / refine-analysis-type=0 / copy-pic=1 / max-ausize-factor=1.0 / no-dynamic-refine / no-single-sei / no-hevc-aq / no-svt / no-field / qp-adaptation-range=1.00 / no-scenecut-aware-qpconformance-window-offsets / right=0 / bottom=0 / NTM4NzU= / decoder-max-rate=0
  35. Language                                 : English
  36. Default                                  : Yes
  37. Forced                                   : No
  38. Color range                              : Limited
  39. Color primaries                          : BT.709
  40. Transfer characteristics                 : BT.709
  41. Matrix coefficients                      : BT.709
  42. Audio
  43. ID                                       : 2
  44. Format                                   : DTS XLL
  45. Format/Info                              : Digital Theater Systems
  46. Commercial name                          : DTS-HD Master Audio
  47. Codec ID                                 : A_DTS
  48. Duration                                 : 1 h 56 min
  49. Bit rate mode                            : Variable
  50. Bit rate                                 : 3 243 kb/s
  51. Channel(s)                               : 6 channels
  52. Channel layout                           : C L R Ls Rs LFE
  53. Sampling rate                            : 48.0 kHz
  54. Frame rate                               : 93.750 FPS (512 SPF)
  55. Bit depth                                : 24 bits
  56. Compression mode                         : Lossless
  57. Stream size                              : 2.64 GiB (26%)
  58. Title                                    : English DTS-HD Master Audio 5.1 @ 3243 kbps
  59. Language                                 : English
  60. Default                                  : Yes
  61. Forced                                   : No
  62. Text #1
  63. ID                                       : 3
  64. Format                                   : PGS
  65. Codec ID                                 : S_HDMV/PGS
  66. Codec ID/Info                            : Picture based subtitle format used on BDs/HD-DVDs
  67. Duration                                 : 1 h 56 min
  68. Bit rate                                 : 21.7 kb/s
  69. Count of elements                        : 2912
  70. Stream size                              : 18.1 MiB (0%)
  71. Title                                    : Eng/SUP
  72. Language                                 : English
  73. Default                                  : No
  74. Forced                                   : No
  75. Text #2
  76. ID                                       : 4
  77. Format                                   : PGS
  78. Codec ID                                 : S_HDMV/PGS
  79. Codec ID/Info                            : Picture based subtitle format used on BDs/HD-DVDs
  80. Duration                                 : 1 h 48 min
  81. Bit rate                                 : 23.4 kb/s
  82. Count of elements                        : 2017
  83. Stream size                              : 18.1 MiB (0%)
  84. Title                                    : Chs/SUP  简体
  85. Language                                 : Chinese
  86. Default                                  : Yes
  87. Forced                                   : No
  88. Text #3
  89. ID                                       : 5
  90. Format                                   : PGS
  91. Codec ID                                 : S_HDMV/PGS
  92. Codec ID/Info                            : Picture based subtitle format used on BDs/HD-DVDs
  93. Duration                                 : 1 h 48 min
  94. Bit rate                                 : 24.1 kb/s
  95. Count of elements                        : 2017
  96. Stream size                              : 18.6 MiB (0%)
  97. Title                                    : Cht/SUP  繁体
  98. Language                                 : Chinese
  99. Default                                  : No
  100. Forced                                   : No
  101. Text #4
  102. ID                                       : 6
  103. Format                                   : PGS
  104. Codec ID                                 : S_HDMV/PGS
  105. Codec ID/Info                            : Picture based subtitle format used on BDs/HD-DVDs
  106. Duration                                 : 1 h 48 min
  107. Bit rate                                 : 38.7 kb/s
  108. Count of elements                        : 2017
  109. Stream size                              : 29.9 MiB (0%)
  110. Title                                    : Chs/SUP  简英双语
  111. Language                                 : Chinese
  112. Default                                  : No
  113. Forced                                   : No
  114. Text #5
  115. ID                                       : 7
  116. Format                                   : PGS
  117. Codec ID                                 : S_HDMV/PGS
  118. Codec ID/Info                            : Picture based subtitle format used on BDs/HD-DVDs
  119. Duration                                 : 1 h 48 min
  120. Bit rate                                 : 39.4 kb/s
  121. Count of elements                        : 2017
  122. Stream size                              : 30.5 MiB (0%)
  123. Title                                    : Cht/SUP  繁英双语
  124. Language                                 : Chinese
  125. Default                                  : No
  126. Forced                                   : No
  127. Menu
  128. 00:00:00.000                             : en:第 01 章
  129. 00:05:44.928                             : en:第 02 章
  130. 00:13:40.111                             : en:第 03 章
  131. 00:30:25.115                             : en:第 04 章
  132. 00:44:10.857                             : en:第 05 章
  133. 00:57:36.995                             : en:第 06 章
  134. 01:08:41.576                             : en:第 07 章
  135. 01:21:19.249                             : en:第 08 章
  136. 01:33:11.628                             : en:第 09 章
  137. 01:38:46.087                             : en:第 10 章
  138. 01:45:46.757                             : en:第 11 章
  139. 01:50:16.527                             : en:第 12 章
复制代码

















保举请利用qBittorrent,utorrent,transmission等标准BT软件下载!以获得最快速度。奉求保种!





回复

使用道具 举报

懒得打字嘛,点击右侧快捷回复 【右侧内容,后台自定义】
您需要登录后才可以回帖 登录 | 立即加入

本版积分规则

Archiver|小黑屋| 蓝光电影网 |网站地图

Copyright © 2021 Comsenz Inc. Powered by 蓝光电影网

蓝光电影网

本站内容由用户自主分享和转载自互联网,转载目的在于传递更多信息,并不代表本网赞同其观点和对其真实性负责。

如有侵权、违反国家法律政策行为,请联系我们,我们会第一时间及时清除和处理!

举报反馈邮箱:[email protected]

快速回复 返回顶部 返回列表