找回密码

蓝光电影网

查看: 108|回复: 3

[剧情] 蜘蛛侠:英雄无归[简繁英双语字幕].Spider-Man.No.Way.Home.2021.BluRay.1080p.DTS-HD.MA5.1.x265.10bit-ALT 6.87GB

[复制链接]
蓝光币
7
发表于 2022-7-31 01:58:44 | 显示全部楼层 |阅读模式


◎标  题 蜘蛛侠:豪杰无归
◎译  名 新蜘蛛侠3 / 蜘蛛侠:无回之战 / 蜘蛛侠:不战无归(港) / 蜘蛛人:无家日(台) / 蜘蛛侠3:豪杰末路 / 蜘蛛侠3:无家可归 / Spider-Man 3 / Spider-Man: Phone Home / Spider-Man: Home-Wrecker / Spider-Man: Home Slice
◎片  名 Spider-Man: No Way Home
◎年  代 2021
◎产  地 美国 / 冰岛
◎类  别 行动 / 科幻 / 冒险
◎语  言 英语 / 他加禄语
◎上映日期 2021-12-15(中国台湾) / 2021-12-17(美国)
◎IMDb评分 8.6/10 (518443人评价)
◎IMDb链接 https://www.imdb.com/title/tt10872600/
◎豆瓣评分 7.5/10 (80556人评价)
◎豆瓣链接 https://movie.douban.com/subject/26933210/
◎片  长 148分钟
◎导  演 乔·沃茨 Jon Watts
◎编  剧 克里斯·麦克纳 Chris McKenna
       埃里克·萨默斯 Erik Sommers
       斯坦·李 Stan Lee
       史蒂夫·迪特寇 Steve Ditko
       克里斯·麦基纳 Chris McKenna
◎演  员 汤姆·赫兰德 Tom Holland
       赞达亚 Zendaya
       本尼迪克特·康伯巴奇 Benedict Cumberbatch
       雅各布·巴特朗 Jacob Batalon
       玛丽莎·托梅 Marisa Tomei
       乔恩·费儒 Jon Favreau
       威廉·达福 Willem Dafoe
       阿尔弗雷德·莫里纳 Alfred Molina
       杰米·福克斯 Jamie Foxx
       本尼迪克特·王 Benedict Wong
       J·K·西蒙斯 J.K. Simmons
       托比·马奎尔 Tobey Maguire
       安德鲁·加菲尔德 Andrew Garfield
       查理·考克斯 Charlie Cox
       瑞斯·伊凡斯 Rhys Ifans
       托马斯·哈登·丘奇 Thomas Haden Church
       安格瑞·赖斯 Angourie Rice
       托尼·雷沃罗利 Tony Revolori
       宝拉·纽瑟姆 Paula Newsome
       汉尼拔·布勒斯 Hannibal Buress
       马丁·斯塔尔 Martin Starr
       J·B·斯穆夫 J.B. Smoove
       哈龙·汗 Haroon Khan
       本·范德梅 Ben VanderMey
       加里·维克斯 Gary Weeks
       马洛里·霍夫 Mallory Hoff
       里贾纳·陈婷 Regina Ting Chen
       格伦·基奥 Glenn Keogh
       帕丽丝·本杰明 Paris Benjamin
       朱万达斯·坎迪斯 Jwaundace Candece
       泰勒·圣克莱尔 Taylor St. Clair
       小豪尔赫·兰登伯格 Jorge Lendeborg Jr.
       何塞·阿尔弗雷多·费尔南德斯 José Alfredo Fernandez
       约翰尼·塞雷 Johnny Serret
       罗伯特·廷斯利 Robert Tinsley
       哈里·赫兰德 Harry Holland
       汤姆·哈迪 Tom Hardy
       克里斯托·费尔南德斯 Cristo Fernández
       布莱德利·瑞安·奈斯贝尔 Bradley Ryan Knispel
       阿里安·莫耶德 Arian Moayed
       凯文·费奇 Kevin Feige
       迈克·吉亚奇诺 Michael Giacchino
       萨尼娅·米尔科维奇·海斯 Sanja Milkovic Hays
◎简  介
  《蜘蛛侠:豪杰无归》是豪杰系列三部曲的结束篇,也标志着漫威多元宇宙的正式开启。此次,蜘蛛侠(汤姆·赫兰德 饰)与奇异博士(本尼迪克特·康伯巴奇 饰)继《复联4》后再度联手打响时空混战。蜘蛛侠借助奇异博士操控时空的才能翻开了时空通道,激发了前所未见的危机。
  1. ##### MediaInfo ######
  2. General
  3. Unique ID                                : 311957161826209726852778831875163082725 (0xEAB0C391182C24B36A6E182E7E68CFE5)
  4. Complete name                            : Spider-Man.No.Way.Home.2021.BluRay.1080p.DTS-HD.MA5.1.x265.10bit-ALT.mkv
  5. Format                                   : Matroska
  6. Format version                           : Version 4
  7. File size                                : 6.87 GiB
  8. Duration                                 : 2 h 28 min
  9. Overall bit rate mode                    : Variable
  10. Overall bit rate                         : 6 641 kb/s
  11. Encoded date                             : UTC 2022-03-15 04:25:05
  12. Writing application                      : mkvmerge v49.0.0 ('Sick Of Losing Soulmates') 64-bit
  13. Writing library                          : libebml v1.4.0 + libmatroska v1.6.1
  14. Video
  15. ID                                       : 1
  16. Format                                   : HEVC
  17. Format/Info                              : High Efficiency Video Coding
  18. Format profile                           : Main [email protected]@High
  19. Codec ID                                 : V_MPEGH/ISO/HEVC
  20. Duration                                 : 2 h 28 min
  21. Bit rate                                 : 4 176 kb/s
  22. Width                                    : 1 920 pixels
  23. Height                                   : 804 pixels
  24. Display aspect ratio                     : 2.40:1
  25. Frame rate mode                          : Constant
  26. Frame rate                               : 23.976 (24000/1001/53875) FPS
  27. Color space                              : YUV
  28. Chroma subsampling                       : 4:2:0
  29. Bit depth                                : 10 bits
  30. Bits/(Pixel*Frame)                       : 0.113
  31. Stream size                              : 4.32 GiB (63%)
  32. Title                                    : HEVC, [email protected]@High, 24/1.001 fps @ 4176 kbps
  33. Writing library                          : x265 3.4+14-gd419c7152:[Windows][GCC 10.2.0][64 bit] 10bit
  34. Encoding settings                        : cpuid=538751111039 / frame-threads=4 / numa-pools=20 / wpp / pmode / pme / no-psnr / no-ssim / log-level=2 / input-csp=1 / input-res=1920x804 / interlace=0 / total-frames=213144 / level-idc=51 / high-tier=1 / uhd-bd=0 / ref=5 / no-allow-non-conformance / no-repeat-headers / annexb / no-aud / no-hrd / info / hash=0 / no-temporal-layers / open-gop / min-keyint=24 / keyint=240 / gop-lookahead=0 / bframes=6 / b-adapt=2 / b-pyramid / bframe-bias=0 / rc-lookahead=40 / lookahead-slices=0 / NTM4NzU=uuDQuD2mJt9fsCf / scenecut=40 / hist-scenecut=0 / radl=0 / no-splice / no-intra-refresh / ctu=32 / min-cu-size=8 / no-rect / no-amp / max-tu-size=32 / tu-inter-depth=3 / tu-intra-depth=3 / limit-tu=4 / rdoq-level=2 / dynamic-rd=0.00 / no-ssim-rd / signhide / no-tskip / nr-intra=0 / nr-inter=0 / no-constrained-intra / no-strong-intra-smoothing / max-merge=4 / limit-refs=1 / limit-modes / me=3 / subme=4 / merange=25 / temporal-mvp / no-frame-dup / no-hme / weightp / weightb / no-analyze-src-pics / deblock=-3:-3 / no-sao / no-sao-non-deblock / rd=6 / selective-sao=0 / no-early-skip / rskip / no-fast-intra / no-tskip-fast / no-cu-lossless / b-intra / no-splitrd-skip / rdpenalty=0 / psy-rd=2.00 / psy-rdoq=1.00 / no-rd-refine / no-lossless / cbqpoffs=0 / crqpoffs=0 / rc=crf / crf=17.0 / qcomp=0.65 / qpstep=4 / stats-write=0 / stats-read=0 / vbv-maxrate=80000 / vbv-bufsize=80000 / vbv-init=0.9 / crf-max=0.0 / crf-min=0.0 / ipratio=1.40 / pbratio=1.30 / aq-mode=2 / aq-strength=0.85 / cutree / zone-count=0 / no-strict-cbr / qg-size=32 / no-rc-grain / qpmax=69 / qpmin=0 / no-const-vbv / sar=1 / overscan=0 / videoformat=5 / range=0 / colorprim=1 / transfer=1 / colormatrix=1 / chromaloc=0 / display-window=0 / cll=0,0 / min-luma=0 / max-luma=1023 / log2-max-poc-lsb=8 / vui-timing-info / vui-hrd-info / slices=1 / no-opt-qp-pps / no-opt-ref-list-length-pps / no-multi-pass-opt-rps / scenecut-bias=0.05 / hist-threshold=0.03 / no-opt-cu-delta-qp / no-aq-motion / no-hdr10 / no-hdr10-opt / no-dhdr10-opt / no-idr-recovery-sei / analysis-reuse-level=0 / analysis-save-reuse-level=0 / analysis-load-reuse-level=0 / scale-factor=0 / refine-intra=0 / refine-inter=0 / refine-mv=1 / refine-ctu-distortion=0 / no-limit-sao / ctu-info=0 / no-lowpass-dct / refine-analysis-type=0 / copy-pic=1 / max-ausize-factor=1.0 / no-dynamic-refine / no-single-sei / no-hevc-aq / no-svt / no-field / qp-adaptation-range=1.00 / no-scenecut-aware-qpconformance-window-offsets / right=0 / bottom=0 / NTM4NzU= / decoder-max-rate=0
  35. Language                                 : English
  36. Default                                  : Yes
  37. Forced                                   : No
  38. Color range                              : Limited
  39. Color primaries                          : BT.709
  40. Transfer characteristics                 : BT.709
  41. Matrix coefficients                      : BT.709
  42. Audio
  43. ID                                       : 2
  44. Format                                   : DTS XLL
  45. Format/Info                              : Digital Theater Systems
  46. Commercial name                          : DTS-HD Master Audio
  47. Codec ID                                 : A_DTS
  48. Duration                                 : 2 h 28 min
  49. Bit rate mode                            : Variable
  50. Bit rate                                 : 2 200 kb/s
  51. Channel(s)                               : 6 channels
  52. Channel layout                           : C L R Ls Rs LFE
  53. Sampling rate                            : 48.0 kHz
  54. Frame rate                               : 93.750 FPS (512 SPF)
  55. Bit depth                                : 16 bits
  56. Compression mode                         : Lossless
  57. Stream size                              : 2.28 GiB (33%)
  58. Title                                    : English DTS-HD Master Audio 5.1 @ 2200 kbps
  59. Language                                 : English
  60. Default                                  : Yes
  61. Forced                                   : No
  62. Text #1
  63. ID                                       : 3
  64. Format                                   : PGS
  65. Codec ID                                 : S_HDMV/PGS
  66. Codec ID/Info                            : Picture based subtitle format used on BDs/HD-DVDs
  67. Duration                                 : 2 h 27 min
  68. Bit rate                                 : 41.5 kb/s
  69. Count of elements                        : 4404
  70. Stream size                              : 43.9 MiB (1%)
  71. Title                                    : Eng/SUP  SDH
  72. Language                                 : English
  73. Default                                  : No
  74. Forced                                   : No
  75. Text #2
  76. ID                                       : 4
  77. Format                                   : PGS
  78. Codec ID                                 : S_HDMV/PGS
  79. Codec ID/Info                            : Picture based subtitle format used on BDs/HD-DVDs
  80. Duration                                 : 2 h 27 min
  81. Bit rate                                 : 35.3 kb/s
  82. Count of elements                        : 3833
  83. Stream size                              : 37.4 MiB (1%)
  84. Title                                    : Eng/SUP
  85. Language                                 : English
  86. Default                                  : No
  87. Forced                                   : No
  88. Text #3
  89. ID                                       : 5
  90. Format                                   : PGS
  91. Codec ID                                 : S_HDMV/PGS
  92. Codec ID/Info                            : Picture based subtitle format used on BDs/HD-DVDs
  93. Duration                                 : 2 h 28 min
  94. Bit rate                                 : 26.6 kb/s
  95. Count of elements                        : 3916
  96. Stream size                              : 28.1 MiB (0%)
  97. Title                                    : Chs/SUP  简体
  98. Language                                 : Chinese
  99. Default                                  : Yes
  100. Forced                                   : No
  101. Text #4
  102. ID                                       : 6
  103. Format                                   : PGS
  104. Codec ID                                 : S_HDMV/PGS
  105. Codec ID/Info                            : Picture based subtitle format used on BDs/HD-DVDs
  106. Duration                                 : 2 h 28 min
  107. Bit rate                                 : 27.5 kb/s
  108. Count of elements                        : 3916
  109. Stream size                              : 29.1 MiB (0%)
  110. Title                                    : Cht/SUP  繁体
  111. Language                                 : Chinese
  112. Default                                  : No
  113. Forced                                   : No
  114. Text #5
  115. ID                                       : 7
  116. Format                                   : PGS
  117. Codec ID                                 : S_HDMV/PGS
  118. Codec ID/Info                            : Picture based subtitle format used on BDs/HD-DVDs
  119. Duration                                 : 2 h 28 min
  120. Bit rate                                 : 64.6 kb/s
  121. Count of elements                        : 3281
  122. Stream size                              : 68.4 MiB (1%)
  123. Title                                    : Chs/SUP  简英双语
  124. Language                                 : Chinese
  125. Default                                  : No
  126. Forced                                   : No
  127. Text #6
  128. ID                                       : 8
  129. Format                                   : PGS
  130. Codec ID                                 : S_HDMV/PGS
  131. Codec ID/Info                            : Picture based subtitle format used on BDs/HD-DVDs
  132. Duration                                 : 2 h 28 min
  133. Bit rate                                 : 65.9 kb/s
  134. Count of elements                        : 3281
  135. Stream size                              : 69.7 MiB (1%)
  136. Title                                    : Cht/SUP  繁英双语
  137. Language                                 : Chinese
  138. Default                                  : No
  139. Forced                                   : No
  140. Menu
  141. 00:00:00.000                             : en:第 01 章
  142. 00:05:03.178                             : en:第 02 章
  143. 00:11:58.593                             : en:第 03 章
  144. 00:18:38.909                             : en:第 04 章
  145. 00:27:00.452                             : en:第 05 章
  146. 00:37:21.239                             : en:第 06 章
  147. 00:48:02.004                             : en:第 07 章
  148. 00:59:51.797                             : en:第 08 章
  149. 01:04:06.634                             : en:第 09 章
  150. 01:09:51.312                             : en:第 10 章
  151. 01:18:29.455                             : en:第 11 章
  152. 01:28:59.626                             : en:第 12 章
  153. 01:33:48.289                             : en:第 13 章
  154. 01:46:38.392                             : en:第 14 章
  155. 02:05:39.323                             : en:第 15 章
  156. 02:13:03.601                             : en:第 16 章
  157. 02:18:56.537                             : en:第 17 章
复制代码

















保举请利用qBittorrent,utorrent,transmission等标准BT软件下载!以获得最快速度。奉求保种!





回复

使用道具 举报

蓝光币
8
发表于 2022-8-3 18:25:40 | 显示全部楼层

楼主发贴辛苦了,谢谢楼主分享!我觉得蓝光电影网是注册对了!
回复 支持 反对

使用道具 举报

蓝光币
6
发表于 2022-8-12 00:11:06 | 显示全部楼层
谢谢楼主
回复

使用道具 举报

蓝光币
0
发表于 2022-8-13 12:53:19 | 显示全部楼层
楼主发贴辛苦了,谢谢楼主分享!
回复 支持 反对

使用道具 举报

懒得打字嘛,点击右侧快捷回复 【右侧内容,后台自定义】
您需要登录后才可以回帖 登录 | 立即加入

本版积分规则

Archiver|小黑屋| 蓝光电影网 |网站地图

Copyright © 2021 Comsenz Inc. Powered by 蓝光电影网

蓝光电影网

本站内容由用户自主分享和转载自互联网,转载目的在于传递更多信息,并不代表本网赞同其观点和对其真实性负责。

如有侵权、违反国家法律政策行为,请联系我们,我们会第一时间及时清除和处理!

举报反馈邮箱:[email protected]

快速回复 返回顶部 返回列表