找回密码

蓝光电影网

查看: 143|回复: 2

[剧情] 雪国列车[国英多音轨/简繁英双语字幕].Snowpiercer.2013.BluRay.1080p.2Audio.DTS-HD.MA5.1.x265.10bit-ALT 12.68GB

[复制链接]
蓝光币
8
发表于 2022-7-31 01:58:54 | 显示全部楼层 |阅读模式


◎标  题 雪国列车
◎译  名 末世列车(港) / 末日列车(台) / 最初的列车 / Snowpiercer
◎片  名 설국열차
◎年  代 2013
◎产  地 韩国 / 捷克
◎类  别 剧情 / 行动 / 科幻
◎语  言 英语 / 韩语 / 法语 / 日语 / 捷克语 / 德语
◎上映日期 2014-03-17(中国大陆) / 2013-08-01(韩国) / 2014-06-27(美国)
◎IMDb评分 7.1/10 (344769人评价)
◎IMDb链接 https://www.imdb.com/title/tt1706620/
◎豆瓣评分 7.5/10 (396658人评价)
◎豆瓣链接 https://movie.douban.com/subject/3071441/
◎片  长 125分钟(中国大陆)
◎导  演 奉俊昊 Joon-ho Bong
◎编  剧 奉俊昊 Joon-ho Bong
       凯利·玛斯特森 Kelly Masterson
       雅克·罗布 Jacques Lob
       本杰明·罗格朗 Benjamin Legrand
       让-马克·罗切特 Jean-Marc Rochette
◎演  员 克里斯·埃文斯 Chris Evans
       宋康昊 Kang-ho Song
       艾德·哈里斯 Ed Harris
       约翰·赫特 John Hurt
       蒂尔达·斯文顿 Tilda Swinton
       杰米·贝尔 Jamie Bell
       奥克塔维亚·斯宾瑟 Octavia Spencer
       艾文·布莱纳 Ewen Bremner
       艾丽森·皮尔 Alison Pill
       文雅星 Ah-sung Ko
       斯蒂夫·朴 Steve Park
       卢克·帕斯夸尼洛 Luke Pasqualino
       肯尼·道提 Kenny Doughty
       克拉克·米德尔顿 Clark Middleton
       弗拉德·伊凡诺夫 Vlad Ivanov
       阿德南·哈斯科维奇 Adnan Haskovic
       艾玛·列维 Emma Levie
       托马斯·勒马尔奎斯 Tómas Lemarquis
       Igor Juric Igor Juric
       马坎索尼·雷斯 Marcanthonee Reis
       吉姆·海伊 Jim High
       Griffin Seymour Griffin Seymour
       肖恩·康纳·伦威克 Sean Connor Renwick
       布莱恩·科林·弗利 Brian Colin Foley
       肯德里克·昂 Kendrick Ong
       达纳·格林 Dana Green
       派瑞·申 Parry Shen
       约瑟夫·贝尔托特 Joseph Bertót
       科乔·亚仕都 Kojo Asiedu
       朴赞郁 Chan-wook Park
       李泰宪 Lee Tae-hun
       马可·贝尔崔米 Marco Beltrami
       洪坰杓 Kyung-Pyo Hong
       韩美妍 Meeyeon Han
       金昌洙 Chang-ju Kim
       Ondrej Nekvasil Ondrej Nekvasil
       Catherine George Catherine George
       Beatrice Brentnerova Beatrice Brentnerova
◎标  签 科幻 / 人性 / 韩国 / 奉俊昊 / 灾难 / 韩国电影 / 剧情 / 美国
◎简  介
  为了应对愈演愈烈的温室效应,天下列国在2014年发射了代号CW-7的冷冻剂,谁知却将地球推入了万劫不复的极寒深渊。大大都的人类死于严寒与发急,只要为数不多的数千人登上了威尔福德产业开辟的列车,成为永不停歇的流浪者。这列火车借助威尔福德(艾德·哈里斯 Ed Harris 饰)开辟的永动引擎,而且装备各类完整设备,在以后的十七年里构建了属于自己的自力生态系统,循环往复扭转在43.8万千米的冗长旅途中。生活在末端车箱的底层群众一向饱受榨取,为了争取自在和权利,他们在曩昔倡议过屡次暴乱,但无疑破例均以失利了结。这一次,具有魁首气质的柯蒂斯(克里斯·埃文斯 Chris Evans 饰)试图找到被软禁的安保设想师南宫民秀(宋康昊 饰),借助他之手翻开通往首节车箱的重严重门,颠覆威尔福德的统治。新年伊始,一场血腥反动正在停止……                                       
                                    本片按照按照法国漫画《Le Tra...
  1. ##### MediaInfo ######
  2. General
  3. Unique ID                                : 61498418150347124673736707148389008562 (0x2E442A1CFCE65EAB15392BEC199BC4B2)
  4. Complete name                            : Snowpiercer.2013.BluRay.1080p.2Audio.DTS-HD.MA5.1.x265.10bit-ALT.mkv
  5. Format                                   : Matroska
  6. Format version                           : Version 4
  7. File size                                : 12.7 GiB
  8. Duration                                 : 2 h 6 min
  9. Overall bit rate mode                    : Variable
  10. Overall bit rate                         : 14.4 Mb/s
  11. Encoded date                             : UTC 2022-01-27 09:42:33
  12. Writing application                      : mkvmerge v49.0.0 ('Sick Of Losing Soulmates') 64-bit
  13. Writing library                          : libebml v1.4.0 + libmatroska v1.6.1
  14. Video
  15. ID                                       : 1
  16. Format                                   : HEVC
  17. Format/Info                              : High Efficiency Video Coding
  18. Format profile                           : Main [email protected]@High
  19. Codec ID                                 : V_MPEGH/ISO/HEVC
  20. Duration                                 : 2 h 6 min
  21. Bit rate                                 : 11.3 Mb/s
  22. Width                                    : 1 920 pixels
  23. Height                                   : 1 038 pixels
  24. Display aspect ratio                     : 1.85:1
  25. Frame rate mode                          : Constant
  26. Frame rate                               : 23.976 (24000/1001/53875) FPS
  27. Color space                              : YUV
  28. Chroma subsampling                       : 4:2:0
  29. Bit depth                                : 10 bits
  30. Bits/(Pixel*Frame)                       : 0.237
  31. Stream size                              : 9.98 GiB (79%)
  32. Title                                    : HEVC, [email protected]@High, 24/1.001 fps @ 11322 kbps
  33. Writing library                          : x265 3.4+14-gd419c7152:[Windows][GCC 10.2.0][64 bit] 10bit
  34. Encoding settings                        : cpuid=538751111039 / frame-threads=4 / numa-pools=16 / wpp / pmode / pme / no-psnr / no-ssim / log-level=2 / input-csp=1 / input-res=1920x1038 / interlace=0 / total-frames=181560 / level-idc=51 / high-tier=1 / uhd-bd=0 / ref=5 / no-allow-non-conformance / no-repeat-headers / annexb / no-aud / no-hrd / info / hash=0 / no-temporal-layers / open-gop / min-keyint=24 / keyint=240 / gop-lookahead=0 / bframes=6 / b-adapt=2 / b-pyramid / bframe-bias=0 / rc-lookahead=40 / lookahead-slices=0 / NTM4NzU=uuDQuD2mJt9fsCf / scenecut=40 / hist-scenecut=0 / radl=0 / no-splice / no-intra-refresh / ctu=32 / min-cu-size=8 / no-rect / no-amp / max-tu-size=32 / tu-inter-depth=3 / tu-intra-depth=3 / limit-tu=4 / rdoq-level=2 / dynamic-rd=0.00 / no-ssim-rd / signhide / no-tskip / nr-intra=0 / nr-inter=0 / no-constrained-intra / no-strong-intra-smoothing / max-merge=4 / limit-refs=1 / limit-modes / me=3 / subme=4 / merange=25 / temporal-mvp / no-frame-dup / no-hme / weightp / weightb / no-analyze-src-pics / deblock=-3:-3 / no-sao / no-sao-non-deblock / rd=6 / selective-sao=0 / no-early-skip / rskip / no-fast-intra / no-tskip-fast / no-cu-lossless / b-intra / no-splitrd-skip / rdpenalty=0 / psy-rd=2.00 / psy-rdoq=1.00 / no-rd-refine / no-lossless / cbqpoffs=0 / crqpoffs=0 / rc=crf / crf=17.0 / qcomp=0.65 / qpstep=4 / stats-write=0 / stats-read=0 / vbv-maxrate=80000 / vbv-bufsize=80000 / vbv-init=0.9 / crf-max=0.0 / crf-min=0.0 / ipratio=1.40 / pbratio=1.30 / aq-mode=2 / aq-strength=0.85 / cutree / zone-count=0 / no-strict-cbr / qg-size=32 / no-rc-grain / qpmax=69 / qpmin=0 / no-const-vbv / sar=1 / overscan=0 / videoformat=5 / range=0 / colorprim=1 / transfer=1 / colormatrix=1 / chromaloc=0 / display-window=0 / cll=0,0 / min-luma=0 / max-luma=1023 / log2-max-poc-lsb=8 / vui-timing-info / vui-hrd-info / slices=1 / no-opt-qp-pps / no-opt-ref-list-length-pps / no-multi-pass-opt-rps / scenecut-bias=0.05 / hist-threshold=0.03 / no-opt-cu-delta-qp / no-aq-motion / no-hdr10 / no-hdr10-opt / no-dhdr10-opt / no-idr-recovery-sei / analysis-reuse-level=0 / analysis-save-reuse-level=0 / analysis-load-reuse-level=0 / scale-factor=0 / refine-intra=0 / refine-inter=0 / refine-mv=1 / refine-ctu-distortion=0 / no-limit-sao / ctu-info=0 / no-lowpass-dct / refine-analysis-type=0 / copy-pic=1 / max-ausize-factor=1.0 / no-dynamic-refine / no-single-sei / no-hevc-aq / no-svt / no-field / qp-adaptation-range=1.00 / no-scenecut-aware-qpconformance-window-offsets / right=0 / bottom=0 / NTM4NzU= / decoder-max-rate=0
  35. Language                                 : English
  36. Default                                  : Yes
  37. Forced                                   : No
  38. Color range                              : Limited
  39. Color primaries                          : BT.709
  40. Transfer characteristics                 : BT.709
  41. Matrix coefficients                      : BT.709
  42. Audio #1
  43. ID                                       : 2
  44. Format                                   : DTS XLL
  45. Format/Info                              : Digital Theater Systems
  46. Commercial name                          : DTS-HD Master Audio
  47. Codec ID                                 : A_DTS
  48. Duration                                 : 2 h 6 min
  49. Bit rate mode                            : Variable
  50. Bit rate                                 : 2 260 kb/s
  51. Channel(s)                               : 6 channels
  52. Channel layout                           : C L R Ls Rs LFE
  53. Sampling rate                            : 48.0 kHz
  54. Frame rate                               : 93.750 FPS (512 SPF)
  55. Bit depth                                : 16 bits
  56. Compression mode                         : Lossless
  57. Stream size                              : 1.99 GiB (16%)
  58. Title                                    : English DTS-HD Master Audio 5.1 @ 2260 kbps
  59. Language                                 : English
  60. Default                                  : Yes
  61. Forced                                   : No
  62. Audio #2
  63. ID                                       : 3
  64. Format                                   : AC-3
  65. Format/Info                              : Audio Coding 3
  66. Commercial name                          : Dolby Digital
  67. Codec ID                                 : A_AC3
  68. Duration                                 : 2 h 6 min
  69. Bit rate mode                            : Constant
  70. Bit rate                                 : 640 kb/s
  71. Channel(s)                               : 6 channels
  72. Channel layout                           : L R C LFE Ls Rs
  73. Sampling rate                            : 48.0 kHz
  74. Frame rate                               : 31.250 FPS (1536 SPF)
  75. Compression mode                         : Lossy
  76. Stream size                              : 577 MiB (4%)
  77. Title                                    : Mandarin Dolby Digital Audio 5.1 @ 640 kbps
  78. Language                                 : Chinese
  79. Service kind                             : Complete Main
  80. Default                                  : No
  81. Forced                                   : No
  82. Text #1
  83. ID                                       : 4
  84. Format                                   : PGS
  85. Codec ID                                 : S_HDMV/PGS
  86. Codec ID/Info                            : Picture based subtitle format used on BDs/HD-DVDs
  87. Duration                                 : 1 h 56 min
  88. Bit rate                                 : 24.4 kb/s
  89. Count of elements                        : 2366
  90. Stream size                              : 20.3 MiB (0%)
  91. Title                                    : Eng/SUP
  92. Language                                 : English
  93. Default                                  : No
  94. Forced                                   : No
  95. Text #2
  96. ID                                       : 5
  97. Format                                   : PGS
  98. Codec ID                                 : S_HDMV/PGS
  99. Codec ID/Info                            : Picture based subtitle format used on BDs/HD-DVDs
  100. Duration                                 : 1 h 56 min
  101. Bit rate                                 : 24.3 kb/s
  102. Count of elements                        : 2366
  103. Stream size                              : 20.3 MiB (0%)
  104. Title                                    : Chs/SUP  简体
  105. Language                                 : Chinese
  106. Default                                  : Yes
  107. Forced                                   : No
  108. Text #3
  109. ID                                       : 6
  110. Format                                   : PGS
  111. Codec ID                                 : S_HDMV/PGS
  112. Codec ID/Info                            : Picture based subtitle format used on BDs/HD-DVDs
  113. Duration                                 : 1 h 56 min
  114. Bit rate                                 : 27.6 kb/s
  115. Count of elements                        : 2366
  116. Stream size                              : 23.0 MiB (0%)
  117. Title                                    : Cht/SUP  繁体
  118. Language                                 : Chinese
  119. Default                                  : No
  120. Forced                                   : No
  121. Text #4
  122. ID                                       : 7
  123. Format                                   : PGS
  124. Codec ID                                 : S_HDMV/PGS
  125. Codec ID/Info                            : Picture based subtitle format used on BDs/HD-DVDs
  126. Duration                                 : 1 h 56 min
  127. Bit rate                                 : 40.4 kb/s
  128. Count of elements                        : 2366
  129. Stream size                              : 33.6 MiB (0%)
  130. Title                                    : Chs/SUP  简英双语
  131. Language                                 : Chinese
  132. Default                                  : No
  133. Forced                                   : No
  134. Text #5
  135. ID                                       : 8
  136. Format                                   : PGS
  137. Codec ID                                 : S_HDMV/PGS
  138. Codec ID/Info                            : Picture based subtitle format used on BDs/HD-DVDs
  139. Duration                                 : 1 h 56 min
  140. Bit rate                                 : 50.6 kb/s
  141. Count of elements                        : 2366
  142. Stream size                              : 42.1 MiB (0%)
  143. Title                                    : Cht/SUP  繁英双语
  144. Language                                 : Chinese
  145. Default                                  : No
  146. Forced                                   : No
  147. Menu
  148. 00:00:00.000                             : en:第 01 章
  149. 00:08:48.152                             : en:第 02 章
  150. 00:15:21.043                             : en:第 03 章
  151. 00:21:39.461                             : en:第 04 章
  152. 00:29:27.807                             : en:第 05 章
  153. 00:39:22.443                             : en:第 06 章
  154. 00:47:58.208                             : en:第 07 章
  155. 00:56:56.496                             : en:第 08 章
  156. 01:03:42.735                             : en:第 09 章
  157. 01:15:30.484                             : en:第 10 章
  158. 01:23:59.658                             : en:第 11 章
  159. 01:27:43.631                             : en:第 12 章
  160. 01:36:49.636                             : en:第 13 章
  161. 01:42:56.877                             : en:第 14 章
  162. 01:52:06.010                             : en:第 15 章
  163. 02:00:40.858                             : en:第 16 章
复制代码

















保举请利用qBittorrent,utorrent,transmission等标准BT软件下载!以获得最快速度。奉求保种!





回复

使用道具 举报

蓝光币
272
发表于 2022-8-1 00:35:30 | 显示全部楼层
楼主发贴辛苦了,谢谢楼主分享!我觉得蓝光电影网是注册对了!
回复 支持 反对

使用道具 举报

蓝光币
1146
发表于 2022-8-8 11:39:36 | 显示全部楼层
楼主发贴辛苦了,谢谢楼主分享!我觉得蓝光电影网是注册对了!
回复 支持 反对

使用道具 举报

懒得打字嘛,点击右侧快捷回复 【右侧内容,后台自定义】
您需要登录后才可以回帖 登录 | 立即加入

本版积分规则

Archiver|小黑屋| 蓝光电影网 |网站地图

Copyright © 2021 Comsenz Inc. Powered by 蓝光电影网

蓝光电影网

本站内容由用户自主分享和转载自互联网,转载目的在于传递更多信息,并不代表本网赞同其观点和对其真实性负责。

如有侵权、违反国家法律政策行为,请联系我们,我们会第一时间及时清除和处理!

举报反馈邮箱:[email protected]

快速回复 返回顶部 返回列表