找回密码

蓝光电影网

查看: 16|回复: 0

[剧情] 奇幻精灵事件簿[简繁英字幕].The.Spiderwick.Chronicles.2008.1080p.AMZN.WEB-DL.H264.DDP5.1-TAGWEB 9.38GB

[复制链接]
蓝光币
7
发表于 2022-7-31 01:58:52 | 显示全部楼层 |阅读模式


◎标  题 奇异精灵事务簿
◎译  名 史柏力魔怪书 / 奇异精灵历险记
◎片  名 The Spiderwick Chronicles
◎年  代 2008
◎产  地 美国
◎类  别 剧情 / 奇异 / 冒险
◎语  言 英语
◎上映日期 2008-02-14(美国)
◎IMDb评分 6.5/10 (92770人评价)
◎IMDb链接 https://www.imdb.com/title/tt0416236/
◎豆瓣评分 7.3/10 (43760人评价)
◎豆瓣链接 https://movie.douban.com/subject/2155676/
◎片  长 96分钟 / 107分钟(未分级版)
◎导  演 马克·沃特斯 Mark Waters
◎编  剧 凯瑞·柯克帕特里克 Karey Kirkpatrick
       大卫·贝伦鲍姆 David Berenbaum
       约翰·塞尔斯 John Sayles
       托尼·迪特里奇 Tony DiTerlizzi
       霍利·布莱克 Holly Black
◎演  员 弗莱迪·海默 Freddie Highmore
       玛丽-露易丝·帕克 Mary-Louise Parker
       尼克·诺特 Nick Nolte
       莎拉·伯格 Sarah Bolger
       安德鲁·麦卡锡 Andrew McCarthy
       琼·普莱怀特 Joan Plowright
       大卫·斯特雷泽恩 David Strathairn
       塞斯·罗根 Seth Rogen
       马丁·肖特 Martin Short
       Jordy Benattar Jordy Benattar
       托德·芬内尔 Tod Fennell
       泰勒·帕特里克·琼斯 Tyler Patrick Jones
       凯尔斯威兹 Kyle Switzer
◎标  签 魔幻 / 奇异 / 美国 / 儿童 / 奇异精灵事务簿 / 美国电影 / 2008 / 电影
◎简  介
    本片按照霍利•布莱克(Holly Black)及托尼•迪特里奇(Tony DiTerlizzi)的同名畅销小说改编。单亲母亲格蕾丝(玛丽-路易斯•帕克 Mary-Louise Parker 饰)带着双胞胎儿子贾里德与西蒙(弗莱迪•海默尔 Freddie Highmore 饰)和大女儿马洛丽(莎拉•伯格 Sarah Bolger 饰)搬入斯派特维克祖居,竟碰到一系列怪事。贾里德在单独观察进程中发现了楼顶阁楼中伯祖母父亲阿瑟•斯派特维克(大卫•斯特雷泽恩 David Strathairn 饰)的精灵摸索指南。虽然书表皮有一纸警告,贾里德还是阅读了指南,随后便看到了书中描写的精灵之一,棕精灵辛伯来泰克(马丁•肖特 配音)。辛伯来泰克警告贾里德不能把书拿到斯派特维克祖居庇护圈外,以防恶灵莫格拉斯(尼克•诺特 Nick Nolte 饰)将指南据为己有,加害其他精灵。但莫格拉斯的手下已得知指南重见天日的究竟,并错抓了西蒙。为了庇护指南及家庭,三兄妹必须与莫格拉斯展开殊死奋斗……
  1. ##### MediaInfo ######
  2. General
  3. Unique ID                                : 153536379068203065389601082295096423894 (0x738207EF9E1A116E9385AF4D9493B5D6)
  4. Complete name                            : The.Spiderwick.Chronicles.2008.1080p.AMZN.WEB-DL.H264.DDP5.1-TAGWEB.mkv
  5. Format                                   : Matroska
  6. Format version                           : Version 4
  7. File size                                : 9.38 GiB
  8. Duration                                 : 1 h 40 min
  9. Overall bit rate                         : 13.4 Mb/s
  10. Encoded date                             : UTC 2022-07-16 00:20:22
  11. Writing application                      : mkvmerge v67.0.0 ('Under Stars') 64-bit
  12. Writing library                          : libebml v1.4.2 + libmatroska v1.6.4
  13. Video
  14. ID                                       : 1
  15. Format                                   : AVC
  16. Format/Info                              : Advanced Video Codec
  17. Format profile                           : [email protected]
  18. Format settings                          : CABAC / 4 Ref Frames
  19. Format settings, CABAC                   : Yes
  20. Format settings, Reference frames        : 4 frames
  21. Codec ID                                 : V_MPEG4/ISO/AVC
  22. Duration                                 : 1 h 40 min
  23. Bit rate                                 : 7 855 kb/s
  24. Width                                    : 1 920 pixels
  25. Height                                   : 816 pixels
  26. Display aspect ratio                     : 2.35:1
  27. Frame rate mode                          : Constant
  28. Frame rate                               : 23.976 (24000/1001/53875) FPS
  29. Color space                              : YUV
  30. Chroma subsampling                       : 4:2:0
  31. Bit depth                                : 8 bits
  32. Scan type                                : Progressive
  33. Bits/(Pixel*Frame)                       : 0.209
  34. Stream size                              : 5.49 GiB (58%)
  35. Language                                 : English
  36. Default                                  : Yes
  37. Forced                                   : No
  38. Color range                              : Limited
  39. Color primaries                          : BT.709
  40. Transfer characteristics                 : BT.709
  41. Matrix coefficients                      : BT.709
  42. Audio #1
  43. ID                                       : 2
  44. Format                                   : E-AC-3
  45. Format/Info                              : Enhanced AC-3
  46. Commercial name                          : Dolby Digital Plus
  47. Codec ID                                 : A_EAC3
  48. Duration                                 : 1 h 40 min
  49. Bit rate mode                            : Constant
  50. Bit rate                                 : 640 kb/s
  51. Channel(s)                               : 6 channels
  52. Channel layout                           : L R C LFE Ls Rs
  53. Sampling rate                            : 48.0 kHz
  54. Frame rate                               : 31.250 FPS (1536 SPF)
  55. Compression mode                         : Lossy
  56. Stream size                              : 458 MiB (5%)
  57. Title                                    : English
  58. Language                                 : English
  59. Service kind                             : Complete Main
  60. Default                                  : Yes
  61. Forced                                   : No
  62. Audio #2
  63. ID                                       : 3
  64. Format                                   : E-AC-3
  65. Format/Info                              : Enhanced AC-3
  66. Commercial name                          : Dolby Digital Plus
  67. Codec ID                                 : A_EAC3
  68. Duration                                 : 1 h 40 min
  69. Bit rate mode                            : Constant
  70. Bit rate                                 : 224 kb/s
  71. Channel(s)                               : 2 channels
  72. Channel layout                           : L R
  73. Sampling rate                            : 48.0 kHz
  74. Frame rate                               : 31.250 FPS (1536 SPF)
  75. Compression mode                         : Lossy
  76. Stream size                              : 160 MiB (2%)
  77. Title                                    : ???
  78. Language                                 : Korean
  79. Service kind                             : Complete Main
  80. Default                                  : No
  81. Forced                                   : No
  82. Audio #3
  83. ID                                       : 4
  84. Format                                   : E-AC-3
  85. Format/Info                              : Enhanced AC-3
  86. Commercial name                          : Dolby Digital Plus
  87. Codec ID                                 : A_EAC3
  88. Duration                                 : 1 h 40 min
  89. Bit rate mode                            : Constant
  90. Bit rate                                 : 640 kb/s
  91. Channel(s)                               : 6 channels
  92. Channel layout                           : L R C LFE Ls Rs
  93. Sampling rate                            : 48.0 kHz
  94. Frame rate                               : 31.250 FPS (1536 SPF)
  95. Compression mode                         : Lossy
  96. Stream size                              : 458 MiB (5%)
  97. Title                                    : espa?ol
  98. Language                                 : Spanish
  99. Service kind                             : Complete Main
  100. Default                                  : No
  101. Forced                                   : No
  102. Audio #4
  103. ID                                       : 5
  104. Format                                   : E-AC-3
  105. Format/Info                              : Enhanced AC-3
  106. Commercial name                          : Dolby Digital Plus
  107. Codec ID                                 : A_EAC3
  108. Duration                                 : 1 h 40 min
  109. Bit rate mode                            : Constant
  110. Bit rate                                 : 640 kb/s
  111. Channel(s)                               : 6 channels
  112. Channel layout                           : L R C LFE Ls Rs
  113. Sampling rate                            : 48.0 kHz
  114. Frame rate                               : 31.250 FPS (1536 SPF)
  115. Compression mode                         : Lossy
  116. Stream size                              : 458 MiB (5%)
  117. Title                                    : 日本語
  118. Language                                 : Japanese
  119. Service kind                             : Complete Main
  120. Default                                  : No
  121. Forced                                   : No
  122. Audio #5
  123. ID                                       : 6
  124. Format                                   : E-AC-3
  125. Format/Info                              : Enhanced AC-3
  126. Commercial name                          : Dolby Digital Plus
  127. Codec ID                                 : A_EAC3
  128. Duration                                 : 1 h 40 min
  129. Bit rate mode                            : Constant
  130. Bit rate                                 : 640 kb/s
  131. Channel(s)                               : 6 channels
  132. Channel layout                           : L R C LFE Ls Rs
  133. Sampling rate                            : 48.0 kHz
  134. Frame rate                               : 31.250 FPS (1536 SPF)
  135. Compression mode                         : Lossy
  136. Stream size                              : 458 MiB (5%)
  137. Title                                    : Deutsch
  138. Language                                 : German
  139. Service kind                             : Complete Main
  140. Default                                  : No
  141. Forced                                   : No
  142. Audio #6
  143. ID                                       : 7
  144. Format                                   : E-AC-3
  145. Format/Info                              : Enhanced AC-3
  146. Commercial name                          : Dolby Digital Plus
  147. Codec ID                                 : A_EAC3
  148. Duration                                 : 1 h 40 min
  149. Bit rate mode                            : Constant
  150. Bit rate                                 : 640 kb/s
  151. Channel(s)                               : 6 channels
  152. Channel layout                           : L R C LFE Ls Rs
  153. Sampling rate                            : 48.0 kHz
  154. Frame rate                               : 31.250 FPS (1536 SPF)
  155. Compression mode                         : Lossy
  156. Stream size                              : 458 MiB (5%)
  157. Title                                    : fran?ais
  158. Language                                 : French
  159. Service kind                             : Complete Main
  160. Default                                  : No
  161. Forced                                   : No
  162. Audio #7
  163. ID                                       : 8
  164. Format                                   : E-AC-3
  165. Format/Info                              : Enhanced AC-3
  166. Commercial name                          : Dolby Digital Plus
  167. Codec ID                                 : A_EAC3
  168. Duration                                 : 1 h 40 min
  169. Bit rate mode                            : Constant
  170. Bit rate                                 : 640 kb/s
  171. Channel(s)                               : 6 channels
  172. Channel layout                           : L R C LFE Ls Rs
  173. Sampling rate                            : 48.0 kHz
  174. Frame rate                               : 31.250 FPS (1536 SPF)
  175. Compression mode                         : Lossy
  176. Stream size                              : 458 MiB (5%)
  177. Title                                    : italiano
  178. Language                                 : Italian
  179. Service kind                             : Complete Main
  180. Default                                  : No
  181. Forced                                   : No
  182. Audio #8
  183. ID                                       : 9
  184. Format                                   : E-AC-3
  185. Format/Info                              : Enhanced AC-3
  186. Commercial name                          : Dolby Digital Plus
  187. Codec ID                                 : A_EAC3
  188. Duration                                 : 1 h 40 min
  189. Bit rate mode                            : Constant
  190. Bit rate                                 : 640 kb/s
  191. Channel(s)                               : 6 channels
  192. Channel layout                           : L R C LFE Ls Rs
  193. Sampling rate                            : 48.0 kHz
  194. Frame rate                               : 31.250 FPS (1536 SPF)
  195. Compression mode                         : Lossy
  196. Stream size                              : 458 MiB (5%)
  197. Title                                    : polski
  198. Language                                 : Polish
  199. Service kind                             : Complete Main
  200. Default                                  : No
  201. Forced                                   : No
  202. Audio #9
  203. ID                                       : 10
  204. Format                                   : E-AC-3
  205. Format/Info                              : Enhanced AC-3
  206. Commercial name                          : Dolby Digital Plus
  207. Codec ID                                 : A_EAC3
  208. Duration                                 : 1 h 40 min
  209. Bit rate mode                            : Constant
  210. Bit rate                                 : 224 kb/s
  211. Channel(s)                               : 2 channels
  212. Channel layout                           : L R
  213. Sampling rate                            : 48.0 kHz
  214. Frame rate                               : 31.250 FPS (1536 SPF)
  215. Compression mode                         : Lossy
  216. Stream size                              : 160 MiB (2%)
  217. Title                                    : português
  218. Language                                 : Portuguese
  219. Service kind                             : Complete Main
  220. Default                                  : No
  221. Forced                                   : No
  222. Audio #10
  223. ID                                       : 11
  224. Format                                   : E-AC-3
  225. Format/Info                              : Enhanced AC-3
  226. Commercial name                          : Dolby Digital Plus
  227. Codec ID                                 : A_EAC3
  228. Duration                                 : 1 h 40 min
  229. Bit rate mode                            : Constant
  230. Bit rate                                 : 640 kb/s
  231. Channel(s)                               : 6 channels
  232. Channel layout                           : L R C LFE Ls Rs
  233. Sampling rate                            : 48.0 kHz
  234. Frame rate                               : 31.250 FPS (1536 SPF)
  235. Compression mode                         : Lossy
  236. Stream size                              : 458 MiB (5%)
  237. Title                                    : Türk?e
  238. Language                                 : Turkish
  239. Service kind                             : Complete Main
  240. Default                                  : No
  241. Forced                                   : No
  242. Text #1
  243. ID                                       : 12
  244. Format                                   : UTF-8
  245. Codec ID                                 : S_TEXT/UTF8
  246. Codec ID/Info                            : UTF-8 Plain Text
  247. Duration                                 : 1 h 27 min
  248. Bit rate                                 : 39 b/s
  249. Count of elements                        : 1016
  250. Stream size                              : 25.1 KiB (0%)
  251. Title                                    : 中文 (简体)
  252. Language                                 : Chinese
  253. Default                                  : Yes
  254. Forced                                   : No
  255. Text #2
  256. ID                                       : 13
  257. Format                                   : UTF-8
  258. Codec ID                                 : S_TEXT/UTF8
  259. Codec ID/Info                            : UTF-8 Plain Text
  260. Duration                                 : 1 h 24 min
  261. Bit rate                                 : 42 b/s
  262. Count of elements                        : 1007
  263. Stream size                              : 26.4 KiB (0%)
  264. Title                                    : 中文 (繁體)
  265. Language                                 : Chinese
  266. Default                                  : No
  267. Forced                                   : No
  268. Text #3
  269. ID                                       : 14
  270. Format                                   : UTF-8
  271. Codec ID                                 : S_TEXT/UTF8
  272. Codec ID/Info                            : UTF-8 Plain Text
  273. Duration                                 : 1 h 25 min
  274. Bit rate                                 : 64 b/s
  275. Count of elements                        : 1496
  276. Stream size                              : 40.4 KiB (0%)
  277. Title                                    : English (United States)
  278. Language                                 : English
  279. Default                                  : No
  280. Forced                                   : No
  281. Text #4
  282. ID                                       : 15
  283. Format                                   : UTF-8
  284. Codec ID                                 : S_TEXT/UTF8
  285. Codec ID/Info                            : UTF-8 Plain Text
  286. Duration                                 : 1 h 27 min
  287. Bit rate                                 : 81 b/s
  288. Count of elements                        : 1083
  289. Stream size                              : 52.2 KiB (0%)
  290. Title                                    : ???????
  291. Language                                 : Arabic
  292. Default                                  : No
  293. Forced                                   : No
  294. Text #5
  295. ID                                       : 16
  296. Format                                   : UTF-8
  297. Codec ID                                 : S_TEXT/UTF8
  298. Codec ID/Info                            : UTF-8 Plain Text
  299. Duration                                 : 1 h 27 min
  300. Bit rate                                 : 45 b/s
  301. Count of elements                        : 1063
  302. Stream size                              : 29.3 KiB (0%)
  303. Title                                    : dansk
  304. Language                                 : Danish
  305. Default                                  : No
  306. Forced                                   : No
  307. Text #6
  308. ID                                       : 17
  309. Format                                   : UTF-8
  310. Codec ID                                 : S_TEXT/UTF8
  311. Codec ID/Info                            : UTF-8 Plain Text
  312. Duration                                 : 1 h 27 min
  313. Bit rate                                 : 58 b/s
  314. Count of elements                        : 1100
  315. Stream size                              : 37.4 KiB (0%)
  316. Title                                    : Deutsch (Deutschland)
  317. Language                                 : German
  318. Default                                  : No
  319. Forced                                   : No
  320. Text #7
  321. ID                                       : 18
  322. Format                                   : UTF-8
  323. Codec ID                                 : S_TEXT/UTF8
  324. Codec ID/Info                            : UTF-8 Plain Text
  325. Duration                                 : 1 h 27 min
  326. Bit rate                                 : 51 b/s
  327. Count of elements                        : 1039
  328. Stream size                              : 32.8 KiB (0%)
  329. Title                                    : espa?ol (Latinoamérica)
  330. Language                                 : Spanish
  331. Default                                  : No
  332. Forced                                   : No
  333. Text #8
  334. ID                                       : 19
  335. Format                                   : UTF-8
  336. Codec ID                                 : S_TEXT/UTF8
  337. Codec ID/Info                            : UTF-8 Plain Text
  338. Duration                                 : 1 h 26 min
  339. Bit rate                                 : 49 b/s
  340. Count of elements                        : 1066
  341. Stream size                              : 31.5 KiB (0%)
  342. Title                                    : espa?ol (Espa?a)
  343. Language                                 : Spanish
  344. Default                                  : No
  345. Forced                                   : No
  346. Text #9
  347. ID                                       : 20
  348. Format                                   : UTF-8
  349. Codec ID                                 : S_TEXT/UTF8
  350. Codec ID/Info                            : UTF-8 Plain Text
  351. Duration                                 : 1 h 27 min
  352. Bit rate                                 : 41 b/s
  353. Count of elements                        : 936
  354. Stream size                              : 26.4 KiB (0%)
  355. Title                                    : suomi
  356. Language                                 : Finnish
  357. Default                                  : No
  358. Forced                                   : No
  359. Text #10
  360. ID                                       : 21
  361. Format                                   : UTF-8
  362. Codec ID                                 : S_TEXT/UTF8
  363. Codec ID/Info                            : UTF-8 Plain Text
  364. Duration                                 : 1 h 26 min
  365. Bit rate                                 : 44 b/s
  366. Count of elements                        : 990
  367. Stream size                              : 28.2 KiB (0%)
  368. Title                                    : fran?ais (France)
  369. Language                                 : French
  370. Default                                  : No
  371. Forced                                   : No
  372. Text #11
  373. ID                                       : 22
  374. Format                                   : UTF-8
  375. Codec ID                                 : S_TEXT/UTF8
  376. Codec ID/Info                            : UTF-8 Plain Text
  377. Duration                                 : 1 h 27 min
  378. Bit rate                                 : 75 b/s
  379. Count of elements                        : 1103
  380. Stream size                              : 48.1 KiB (0%)
  381. Title                                    : ?????
  382. Language                                 : Hebrew
  383. Default                                  : No
  384. Forced                                   : No
  385. Text #12
  386. ID                                       : 23
  387. Format                                   : UTF-8
  388. Codec ID                                 : S_TEXT/UTF8
  389. Codec ID/Info                            : UTF-8 Plain Text
  390. Duration                                 : 1 h 33 min
  391. Bit rate                                 : 121 b/s
  392. Count of elements                        : 1058
  393. Stream size                              : 83.6 KiB (0%)
  394. Title                                    : ??????
  395. Language                                 : Hindi
  396. Default                                  : No
  397. Forced                                   : No
  398. Text #13
  399. ID                                       : 24
  400. Format                                   : UTF-8
  401. Codec ID                                 : S_TEXT/UTF8
  402. Codec ID/Info                            : UTF-8 Plain Text
  403. Duration                                 : 1 h 24 min
  404. Bit rate                                 : 49 b/s
  405. Count of elements                        : 1014
  406. Stream size                              : 30.7 KiB (0%)
  407. Title                                    : bahasa Indonesia
  408. Language                                 : Indonesian
  409. Default                                  : No
  410. Forced                                   : No
  411. Text #14
  412. ID                                       : 25
  413. Format                                   : UTF-8
  414. Codec ID                                 : S_TEXT/UTF8
  415. Codec ID/Info                            : UTF-8 Plain Text
  416. Duration                                 : 1 h 27 min
  417. Bit rate                                 : 53 b/s
  418. Count of elements                        : 1101
  419. Stream size                              : 34.5 KiB (0%)
  420. Title                                    : italiano
  421. Language                                 : Italian
  422. Default                                  : No
  423. Forced                                   : No
  424. Text #15
  425. ID                                       : 26
  426. Format                                   : UTF-8
  427. Codec ID                                 : S_TEXT/UTF8
  428. Codec ID/Info                            : UTF-8 Plain Text
  429. Duration                                 : 1 h 25 min
  430. Bit rate                                 : 50 b/s
  431. Count of elements                        : 1069
  432. Stream size                              : 31.7 KiB (0%)
  433. Title                                    : 日本語
  434. Language                                 : Japanese
  435. Default                                  : No
  436. Forced                                   : No
  437. Text #16
  438. ID                                       : 27
  439. Format                                   : UTF-8
  440. Codec ID                                 : S_TEXT/UTF8
  441. Codec ID/Info                            : UTF-8 Plain Text
  442. Duration                                 : 1 h 25 min
  443. Bit rate                                 : 58 b/s
  444. Count of elements                        : 1095
  445. Stream size                              : 36.5 KiB (0%)
  446. Title                                    : ???
  447. Language                                 : Korean
  448. Default                                  : No
  449. Forced                                   : No
  450. Text #17
  451. ID                                       : 28
  452. Format                                   : UTF-8
  453. Codec ID                                 : S_TEXT/UTF8
  454. Codec ID/Info                            : UTF-8 Plain Text
  455. Duration                                 : 1 h 25 min
  456. Bit rate                                 : 53 b/s
  457. Count of elements                        : 1101
  458. Stream size                              : 33.5 KiB (0%)
  459. Title                                    : bahasa Malaysia (Malaysia)
  460. Language                                 : Malay
  461. Default                                  : No
  462. Forced                                   : No
  463. Text #18
  464. ID                                       : 29
  465. Format                                   : UTF-8
  466. Codec ID                                 : S_TEXT/UTF8
  467. Codec ID/Info                            : UTF-8 Plain Text
  468. Duration                                 : 1 h 27 min
  469. Bit rate                                 : 40 b/s
  470. Count of elements                        : 1016
  471. Stream size                              : 26.2 KiB (0%)
  472. Title                                    : norsk bokm?l
  473. Language                                 : Norwegian Bokmal
  474. Default                                  : No
  475. Forced                                   : No
  476. Text #19
  477. ID                                       : 30
  478. Format                                   : UTF-8
  479. Codec ID                                 : S_TEXT/UTF8
  480. Codec ID/Info                            : UTF-8 Plain Text
  481. Duration                                 : 1 h 25 min
  482. Bit rate                                 : 45 b/s
  483. Count of elements                        : 1018
  484. Stream size                              : 28.6 KiB (0%)
  485. Title                                    : Nederlands
  486. Language                                 : Dutch
  487. Default                                  : No
  488. Forced                                   : No
  489. Text #20
  490. ID                                       : 31
  491. Format                                   : UTF-8
  492. Codec ID                                 : S_TEXT/UTF8
  493. Codec ID/Info                            : UTF-8 Plain Text
  494. Duration                                 : 1 h 24 min
  495. Bit rate                                 : 52 b/s
  496. Count of elements                        : 1059
  497. Stream size                              : 32.6 KiB (0%)
  498. Title                                    : polski
  499. Language                                 : Polish
  500. Default                                  : No
  501. Forced                                   : No
  502. Text #21
  503. ID                                       : 32
  504. Format                                   : UTF-8
  505. Codec ID                                 : S_TEXT/UTF8
  506. Codec ID/Info                            : UTF-8 Plain Text
  507. Duration                                 : 1 h 27 min
  508. Bit rate                                 : 48 b/s
  509. Count of elements                        : 1040
  510. Stream size                              : 31.2 KiB (0%)
  511. Title                                    : português (Brasil)
  512. Language                                 : Portuguese
  513. Default                                  : No
  514. Forced                                   : No
  515. Text #22
  516. ID                                       : 33
  517. Format                                   : UTF-8
  518. Codec ID                                 : S_TEXT/UTF8
  519. Codec ID/Info                            : UTF-8 Plain Text
  520. Duration                                 : 1 h 27 min
  521. Bit rate                                 : 91 b/s
  522. Count of elements                        : 1102
  523. Stream size                              : 58.8 KiB (0%)
  524. Title                                    : русский
  525. Language                                 : Russian
  526. Default                                  : No
  527. Forced                                   : No
  528. Text #23
  529. ID                                       : 34
  530. Format                                   : UTF-8
  531. Codec ID                                 : S_TEXT/UTF8
  532. Codec ID/Info                            : UTF-8 Plain Text
  533. Duration                                 : 1 h 24 min
  534. Bit rate                                 : 53 b/s
  535. Count of elements                        : 1054
  536. Stream size                              : 32.8 KiB (0%)
  537. Title                                    : svenska
  538. Language                                 : Swedish
  539. Default                                  : No
  540. Forced                                   : No
  541. Text #24
  542. ID                                       : 35
  543. Format                                   : UTF-8
  544. Codec ID                                 : S_TEXT/UTF8
  545. Codec ID/Info                            : UTF-8 Plain Text
  546. Duration                                 : 1 h 33 min
  547. Bit rate                                 : 154 b/s
  548. Count of elements                        : 1065
  549. Stream size                              : 106 KiB (0%)
  550. Title                                    : ?????
  551. Language                                 : Tamil
  552. Default                                  : No
  553. Forced                                   : No
  554. Text #25
  555. ID                                       : 36
  556. Format                                   : UTF-8
  557. Codec ID                                 : S_TEXT/UTF8
  558. Codec ID/Info                            : UTF-8 Plain Text
  559. Duration                                 : 1 h 33 min
  560. Bit rate                                 : 115 b/s
  561. Count of elements                        : 1059
  562. Stream size                              : 79.5 KiB (0%)
  563. Title                                    : ??????
  564. Language                                 : Telugu
  565. Default                                  : No
  566. Forced                                   : No
  567. Text #26
  568. ID                                       : 37
  569. Format                                   : UTF-8
  570. Codec ID                                 : S_TEXT/UTF8
  571. Codec ID/Info                            : UTF-8 Plain Text
  572. Duration                                 : 1 h 24 min
  573. Bit rate                                 : 53 b/s
  574. Count of elements                        : 1065
  575. Stream size                              : 32.8 KiB (0%)
  576. Title                                    : Türk?e
  577. Language                                 : Turkish
  578. Default                                  : No
  579. Forced                                   : No
  580. Menu
  581. 00:00:00.000                             : en:Studio Logos
  582. 00:00:35.000                             : en:Arthur Spiderwick Compiles Notes, Opening Credits
  583. 00:02:37.000                             : en:Jared Gets Upset about the Move
  584. 00:05:58.000                             : en:Jared and Simon Review Their New Home's Strange History
  585. 00:07:30.000                             : en:Jared Talks to His Dad
  586. 00:10:31.000                             : en:The Kids Find Their Stuff Inside a Wall
  587. 00:12:46.000                             : en:Jared Finds a Mysterious Book
  588. 00:15:12.000                             : en:Jared Reads Arthur's Writings
  589. 00:19:17.000                             : en:Something Strange Happened to Mallory
  590. 00:19:58.000                             : en:The Difference between a Brownie and a Bugger
  591. 00:21:33.000                             : en:Jared Sets a Brownie Trap
  592. 00:23:05.000                             : en:Thimbletack Tells Jared the Significance of the Book
  593. 00:27:26.000                             : en:Jared Meets Hogsqueal
  594. 00:30:11.000                             : en:Jared Watches as His Brother Deals with Mulgarath
  595. 00:34:15.000                             : en:Jared and Simon Help Their Sister Repel the Goblins
  596. 00:36:48.000                             : en:The Kids Discuss What to Do with the Book
  597. 00:39:19.000                             : en:The Kids Decide to Seek Help from Lucinda
  598. 00:41:28.000                             : en:Mallory and Jared Dash to the Shed
  599. 00:43:09.000                             : en:Jared Repels a Troll
  600. 00:45:27.000                             : en:Helen Notices Her Kids
  601. 00:46:32.000                             : en:Mallory and Jared Meet Lucinda
  602. 00:49:44.000                             : en:Lucinda Talks about Her Father's Kidnapping
  603. 00:53:34.000                             : en:Mulgarath Discovers a Weakness in the Circle
  604. 00:54:20.000                             : en:Jared's Mother Has a Secret
  605. 00:56:17.000                             : en:Mallory and Simon Meet Hogsqueal
  606. 00:58:22.000                             : en:Jared Learns why His Father Isn't Calling Back
  607. 01:01:10.000                             : en:Jared Summons a Gryphon
  608. 01:02:30.000                             : en:The Kids Take a Terrifying Ride
  609. 01:03:21.000                             : en:Jared Tells Arthur 80 Years Have Gone By
  610. 01:05:39.000                             : en:Arthur Helps the Kids Escape
  611. 01:09:41.000                             : en:Jared Lets His Mother In on the Secret
  612. 01:11:35.000                             : en:The Kids Prepare the House for a Seige
  613. 01:13:12.000                             : en:The Goblins Attack
  614. 01:15:48.000                             : en:An Unexpected Guest Arrives
  615. 01:17:51.000                             : en:Mulgarath Pursues Jared
  616. 01:21:59.000                             : en:Lucinda Returns Home
  617. 01:23:32.000                             : en:Lucinda Reunites with Her Father
  618. 01:27:03.000                             : en:End Credits
复制代码

















保举请利用qBittorrent,utorrent,transmission等标准BT软件下载!以获得最快速度。奉求保种!





回复

使用道具 举报

懒得打字嘛,点击右侧快捷回复 【右侧内容,后台自定义】
您需要登录后才可以回帖 登录 | 立即加入

本版积分规则

Archiver|小黑屋| 蓝光电影网 |网站地图

Copyright © 2021 Comsenz Inc. Powered by 蓝光电影网

蓝光电影网

本站内容由用户自主分享和转载自互联网,转载目的在于传递更多信息,并不代表本网赞同其观点和对其真实性负责。

如有侵权、违反国家法律政策行为,请联系我们,我们会第一时间及时清除和处理!

举报反馈邮箱:[email protected]

快速回复 返回顶部 返回列表