找回密码

蓝光电影网

查看: 71|回复: 0

[剧情] 世界[国语音轨/简繁英字幕].The.World.2004.BluRay.1080p.DTS-HD.MA.2.0.x265.10bit-ALT 9.57GB

[复制链接]
蓝光币
7
发表于 2022-7-31 01:58:57 | 显示全部楼层 |阅读模式


◎标  题 天下
◎译  名 The World
◎年  代 2004
◎产  地 中国大陆 / 日本 / 法国
◎类  别 剧情
◎语  言 汉语普通话 / 晋语 / 俄语 / 英语
◎上映日期 2005-04-15(中国大陆) / 2004-09-04(威尼斯电影节)
◎IMDb评分 7.1/10 (3242人评价)
◎IMDb链接 https://www.imdb.com/title/tt0423176/
◎豆瓣评分 7.4/10 (23341人评价)
◎豆瓣链接 https://movie.douban.com/subject/1309087/
◎片  长 143分钟 / 105分钟(戏院版)
◎导  演 贾樟柯 Zhangke Jia
◎编  剧 贾樟柯 Zhangke Jia
◎演  员 赵涛 Tao Zhao
       成泰燊 Taishen Cheng
       黄依群 Yiqun Huang
       王宏伟 Hongwei Wang
       梁景东 Jingdong Liang
       王小帅 Xiaoshuai Wang
       韩三明 Sanming Han
       蒋中炜 Zhongwei Jiang
       刘小东 Xiaodong Liu
◎标  签 贾樟柯 / 文艺 / 中国电影 / 大陆 / 中国 / 2004 / 賈樟柯 / 天下
◎简  介
    身为北京天下公园风俗村的一位舞蹈演员,赵小桃(赵涛)对身旁微缩的天下早已厌倦,渴望有天同也在风俗村做保安队长的男友成太生(成泰燊)一路坐飞机去看看里面实在的天下。前任男友的到访,令赵小桃想起她同成太生铭肌镂骨的初遇以及今朝两人过的平淡日子,大白昔日的理想早被破坏,而刚结识的一见仍旧的俄罗斯姑娘安娜的忽然离去,加深了她对现实生活意义的思疑,熟悉到她和成太生对相互的忠贞,是生活里所剩的惟有美好。                                                                      但是民气是最能琢磨的,成太生悄无声息地把心给了另一个行将去巴黎的女人,但他明显没有领会风俗村之外的现实天下里风行的感情游戏法则,只能黯然回归自己的低微身份。
  1. ##### MediaInfo ######
  2. General
  3. Unique ID                                : 159757151391247284457160114573185083931 (0x78301BB0FE12B4C81EC9B08E5C136A1B)
  4. Complete name                            : The.World.2004.BluRay.1080p.DTS-HD.MA.2.0.x265.10bit-ALT.mkv
  5. Format                                   : Matroska
  6. Format version                           : Version 4
  7. File size                                : 9.57 GiB
  8. Duration                                 : 2 h 19 min
  9. Overall bit rate mode                    : Variable
  10. Overall bit rate                         : 9 822 kb/s
  11. Encoded date                             : UTC 2022-07-28 13:30:00
  12. Writing application                      : mkvmerge v49.0.0 ('Sick Of Losing Soulmates') 64-bit
  13. Writing library                          : libebml v1.4.0 + libmatroska v1.6.1
  14. Video
  15. ID                                       : 1
  16. Format                                   : HEVC
  17. Format/Info                              : High Efficiency Video Coding
  18. Format profile                           : Main [email protected]@High
  19. Codec ID                                 : V_MPEGH/ISO/HEVC
  20. Duration                                 : 2 h 19 min
  21. Bit rate                                 : 8 078 kb/s
  22. Width                                    : 1 920 pixels
  23. Height                                   : 820 pixels
  24. Display aspect ratio                     : 2.35:1
  25. Frame rate mode                          : Constant
  26. Frame rate                               : 24.000 FPS
  27. Color space                              : YUV
  28. Chroma subsampling                       : 4:2:0
  29. Bit depth                                : 10 bits
  30. Bits/(Pixel*Frame)                       : 0.214
  31. Stream size                              : 7.87 GiB (82%)
  32. Title                                    : HEVC, [email protected]@High, 24 fps @ 8078 kbps
  33. Writing library                          : x265 3.5+36-1f2c8da77:[Windows][GCC 11.2.0][64 bit] 10bit
  34. Encoding settings                        : cpuid=538751111039 / frame-threads=4 / numa-pools=20 / wpp / no-pmode / no-pme / no-psnr / no-ssim / log-level=2 / input-csp=1 / input-res=1920x820 / interlace=0 / total-frames=200917 / level-idc=51 / high-tier=1 / uhd-bd=0 / ref=5 / no-allow-non-conformance / no-repeat-headers / annexb / no-aud / no-eob / no-eos / no-hrd / info / hash=0 / no-temporal-layers / open-gop / min-keyint=24 / keyint=240 / gop-lookahead=0 / bframes=6 / b-adapt=2 / b-pyramid / bframe-bias=0 / rc-lookahead=40 / lookahead-slices=0 / NTM4NzU=uuDQuD2mJt9fsCf / scenecut=40 / no-hist-scenecut / radl=0 / no-splice / no-intra-refresh / ctu=32 / min-cu-size=8 / no-rect / no-amp / max-tu-size=32 / tu-inter-depth=3 / tu-intra-depth=3 / limit-tu=4 / rdoq-level=2 / dynamic-rd=0.00 / no-ssim-rd / signhide / no-tskip / nr-intra=0 / nr-inter=0 / no-constrained-intra / no-strong-intra-smoothing / max-merge=4 / limit-refs=1 / limit-modes / me=3 / subme=4 / merange=25 / temporal-mvp / no-frame-dup / no-hme / weightp / weightb / no-analyze-src-pics / deblock=-3:-3 / no-sao / no-sao-non-deblock / rd=6 / selective-sao=0 / no-early-skip / rskip / no-fast-intra / no-tskip-fast / no-cu-lossless / b-intra / no-splitrd-skip / rdpenalty=0 / psy-rd=2.00 / psy-rdoq=1.00 / no-rd-refine / no-lossless / cbqpoffs=-2 / crqpoffs=-2 / rc=crf / crf=18.5 / qcomp=0.65 / qpstep=4 / stats-write=0 / stats-read=0 / vbv-maxrate=80000 / vbv-bufsize=80000 / vbv-init=0.9 / min-vbv-fullness=50.0 / max-vbv-fullness=80.0 / crf-max=0.0 / crf-min=0.0 / ipratio=1.40 / pbratio=1.30 / aq-mode=2 / aq-strength=0.85 / cutree / zone-count=0 / no-strict-cbr / qg-size=32 / no-rc-grain / qpmax=69 / qpmin=0 / no-const-vbv / sar=1 / overscan=0 / videoformat=5 / range=0 / colorprim=1 / transfer=1 / colormatrix=1 / chromaloc=0 / display-window=0 / cll=0,0 / min-luma=0 / max-luma=1023 / log2-max-poc-lsb=8 / vui-timing-info / vui-hrd-info / slices=1 / no-opt-qp-pps / no-opt-ref-list-length-pps / no-multi-pass-opt-rps / scenecut-bias=0.05 / hist-threshold=0.03 / no-opt-cu-delta-qp / no-aq-motion / no-hdr10 / no-hdr10-opt / no-dhdr10-opt / no-idr-recovery-sei / analysis-reuse-level=0 / analysis-save-reuse-level=0 / analysis-load-reuse-level=0 / scale-factor=0 / refine-intra=0 / refine-inter=0 / refine-mv=1 / refine-ctu-distortion=0 / no-limit-sao / ctu-info=0 / no-lowpass-dct / refine-analysis-type=0 / copy-pic=1 / max-ausize-factor=1.0 / no-dynamic-refine / no-single-sei / no-hevc-aq / no-svt / no-field / qp-adaptation-range=1.00 / scenecut-aware-qp=0conformance-window-offsets / right=0 / bottom=0 / NTM4NzU= / decoder-max-rate=0 / no-vbv-live-multi-pass
  35. Language                                 : English
  36. Default                                  : Yes
  37. Forced                                   : No
  38. Color range                              : Limited
  39. Color primaries                          : BT.709
  40. Transfer characteristics                 : BT.709
  41. Matrix coefficients                      : BT.709
  42. Audio
  43. ID                                       : 2
  44. Format                                   : DTS XLL
  45. Format/Info                              : Digital Theater Systems
  46. Commercial name                          : DTS-HD Master Audio
  47. Codec ID                                 : A_DTS
  48. Duration                                 : 2 h 19 min
  49. Bit rate mode                            : Variable
  50. Bit rate                                 : 1 711 kb/s
  51. Channel(s)                               : 2 channels
  52. Channel layout                           : L R
  53. Sampling rate                            : 48.0 kHz
  54. Frame rate                               : 93.750 FPS (512 SPF)
  55. Bit depth                                : 16 bits
  56. Compression mode                         : Lossless
  57. Stream size                              : 1.67 GiB (17%)
  58. Title                                    : Mandarin DTS-HD Master Audio 2.0 @ 1711 kbps
  59. Language                                 : Chinese
  60. Default                                  : Yes
  61. Forced                                   : No
  62. Text #1
  63. ID                                       : 3
  64. Format                                   : PGS
  65. Codec ID                                 : S_HDMV/PGS
  66. Codec ID/Info                            : Picture based subtitle format used on BDs/HD-DVDs
  67. Duration                                 : 2 h 15 min
  68. Bit rate                                 : 16.0 kb/s
  69. Count of elements                        : 1982
  70. Stream size                              : 15.5 MiB (0%)
  71. Title                                    : Eng/SUP
  72. Language                                 : English
  73. Default                                  : No
  74. Forced                                   : No
  75. Text #2
  76. ID                                       : 4
  77. Format                                   : PGS
  78. Codec ID                                 : S_HDMV/PGS
  79. Codec ID/Info                            : Picture based subtitle format used on BDs/HD-DVDs
  80. Duration                                 : 2 h 15 min
  81. Bit rate                                 : 6 865 b/s
  82. Count of elements                        : 2015
  83. Stream size                              : 6.66 MiB (0%)
  84. Title                                    : Chs/SUP  简体
  85. Language                                 : Chinese
  86. Default                                  : Yes
  87. Forced                                   : No
  88. Text #3
  89. ID                                       : 5
  90. Format                                   : PGS
  91. Codec ID                                 : S_HDMV/PGS
  92. Codec ID/Info                            : Picture based subtitle format used on BDs/HD-DVDs
  93. Duration                                 : 2 h 15 min
  94. Bit rate                                 : 7 225 b/s
  95. Count of elements                        : 2015
  96. Stream size                              : 7.01 MiB (0%)
  97. Title                                    : Cht/SUP  繁体
  98. Language                                 : Chinese
  99. Default                                  : No
  100. Forced                                   : No
  101. Menu
  102. 00:00:00.000                             : en:第 01 章
  103. 00:07:20.667                             : en:第 02 章
  104. 00:20:36.625                             : en:第 03 章
  105. 00:26:06.542                             : en:第 04 章
  106. 00:31:51.958                             : en:第 05 章
  107. 00:38:50.958                             : en:第 06 章
  108. 00:44:28.292                             : en:第 07 章
  109. 00:49:38.667                             : en:第 08 章
  110. 00:54:42.167                             : en:第 09 章
  111. 01:03:30.083                             : en:第 10 章
  112. 01:15:57.458                             : en:第 11 章
  113. 01:22:05.542                             : en:第 12 章
  114. 01:28:53.958                             : en:第 13 章
  115. 01:39:13.833                             : en:第 14 章
  116. 01:48:30.292                             : en:第 15 章
  117. 01:57:11.583                             : en:第 16 章
  118. 02:09:06.708                             : en:第 17 章
  119. 02:16:16.167                             : en:第 18 章
复制代码

















保举请利用qBittorrent,utorrent,transmission等标准BT软件下载!以获得最快速度。奉求保种!





回复

使用道具 举报

懒得打字嘛,点击右侧快捷回复 【右侧内容,后台自定义】
您需要登录后才可以回帖 登录 | 立即加入

本版积分规则

Archiver|小黑屋| 蓝光电影网 |网站地图

Copyright © 2021 Comsenz Inc. Powered by 蓝光电影网

蓝光电影网

本站内容由用户自主分享和转载自互联网,转载目的在于传递更多信息,并不代表本网赞同其观点和对其真实性负责。

如有侵权、违反国家法律政策行为,请联系我们,我们会第一时间及时清除和处理!

举报反馈邮箱:[email protected]

快速回复 返回顶部 返回列表