找回密码

蓝光电影网

查看: 37|回复: 0

[剧情] 她的马拉松[简繁英字幕].Brittany.Runs.a.Marathon.2019.1080p.AMZN.WEB-DL.H264.DDP5.1-TAGWEB 7.20GB

[复制链接]
蓝光币
8
发表于 2022-7-31 01:58:56 | 显示全部楼层 |阅读模式


◎标  题 她的马拉松
◎译  名 我的马拉松日志(港) / 布列塔尼加入马拉松角逐(台)
◎片  名 Brittany Runs a Marathon
◎年  代 2019
◎产  地 美国
◎类  别 剧情 / 笑剧
◎语  言 英语
◎上映日期 2019-01-28(圣丹斯电影节) / 2019-08-23(美国)
◎IMDb评分 6.8/10 (19639人评价)
◎IMDb链接 https://www.imdb.com/title/tt7671064/
◎豆瓣评分 6.8/10 (1247人评价)
◎豆瓣链接 https://movie.douban.com/subject/30257331/
◎片  长 103分钟
◎导  演 保罗·唐斯·卡莱佐 Paul Downs Colaizzo
◎编  剧 保罗·唐斯·卡莱佐 Paul Downs Colaizzo
◎演  员 里尔·莱尔·哈瓦瑞 Lil Rel Howery
       吉莉恩·贝尔 Jillian Bell
       麦可拉·沃金丝 Michaela Watkins
       乌特卡什·安邦德卡尔 Utkarsh Ambudkar
       爱丽丝·李 Alice Lee
       米卡·斯托克 Micah Stock
       埃斯特班·贝尼托 Esteban Benito
       托比·马奎尔 Tobey Maguire
◎简  介
  布列塔尼·福格勒是一个风趣的,心爱的,27岁的纽约人,紧急的生活让她过得整齐不齐的,其龌龊的夜总会冒险和早晨耻辱的散步使她天天上班早退。可是当她停在一个叫“保举医生办公室”的地方,试图给她加药时,布里塔尼获得了一系列的诊断成果,而不是心率升高、血压升高……一长串的疾病。忽然,布列塔尼被迫握紧,系上她的匡威活动鞋,跑了一个汗块。第二天,她跑了两次。很快她就跑了一英里。布列塔尼终究有了偏向,但她走对了吗?                                    
                                获奖剧作家保罗·唐斯·科拉伊佐以这部明亮、活跃的笑剧初次执导了他的导演生活,而吉祥安·贝尔则以一个不成顺从的演员声势为布列塔尼的故事注入了心里和灵魂。布列塔尼经营一场马拉松是一部既风趣又鼓舞民气的电影,报告一个以派对生活著名的女人若何经过控制自己找到实在的朋友和实在的生活,跑过一次一个街区。
  1. ##### MediaInfo ######
  2. General
  3. Unique ID                                : 241975199124407196660029090672569523502 (0xB60ABA69F4FFFDA64C6CC2031C189D2E)
  4. Complete name                            : Brittany.Runs.a.Marathon.2019.1080p.AMZN.WEB-DL.H264.DDP5.1-TAGWEB.mkv
  5. Format                                   : Matroska
  6. Format version                           : Version 4
  7. File size                                : 7.20 GiB
  8. Duration                                 : 1 h 43 min
  9. Overall bit rate                         : 9 918 kb/s
  10. Encoded date                             : UTC 2022-07-16 03:16:54
  11. Writing application                      : mkvmerge v67.0.0 ('Under Stars') 64-bit
  12. Writing library                          : libebml v1.4.2 + libmatroska v1.6.4
  13. Video
  14. ID                                       : 1
  15. Format                                   : AVC
  16. Format/Info                              : Advanced Video Codec
  17. Format profile                           : [email protected]
  18. Format settings                          : CABAC / 4 Ref Frames
  19. Format settings, CABAC                   : Yes
  20. Format settings, Reference frames        : 4 frames
  21. Codec ID                                 : V_MPEG4/ISO/AVC
  22. Duration                                 : 1 h 43 min
  23. Bit rate                                 : 5 430 kb/s
  24. Width                                    : 1 920 pixels
  25. Height                                   : 800 pixels
  26. Display aspect ratio                     : 2.40:1
  27. Frame rate mode                          : Constant
  28. Frame rate                               : 23.976 (24000/1001/53875) FPS
  29. Color space                              : YUV
  30. Chroma subsampling                       : 4:2:0
  31. Bit depth                                : 8 bits
  32. Scan type                                : Progressive
  33. Bits/(Pixel*Frame)                       : 0.147
  34. Stream size                              : 3.94 GiB (55%)
  35. Language                                 : English
  36. Default                                  : Yes
  37. Forced                                   : No
  38. Color range                              : Limited
  39. Color primaries                          : BT.709
  40. Transfer characteristics                 : BT.709
  41. Matrix coefficients                      : BT.709
  42. Audio #1
  43. ID                                       : 2
  44. Format                                   : E-AC-3
  45. Format/Info                              : Enhanced AC-3
  46. Commercial name                          : Dolby Digital Plus
  47. Codec ID                                 : A_EAC3
  48. Duration                                 : 1 h 43 min
  49. Bit rate mode                            : Constant
  50. Bit rate                                 : 640 kb/s
  51. Channel(s)                               : 6 channels
  52. Channel layout                           : L R C LFE Ls Rs
  53. Sampling rate                            : 48.0 kHz
  54. Frame rate                               : 31.250 FPS (1536 SPF)
  55. Compression mode                         : Lossy
  56. Stream size                              : 476 MiB (6%)
  57. Title                                    : English
  58. Language                                 : English
  59. Service kind                             : Complete Main
  60. Default                                  : Yes
  61. Forced                                   : No
  62. Audio #2
  63. ID                                       : 3
  64. Format                                   : E-AC-3
  65. Format/Info                              : Enhanced AC-3
  66. Commercial name                          : Dolby Digital Plus
  67. Codec ID                                 : A_EAC3
  68. Duration                                 : 1 h 43 min
  69. Bit rate mode                            : Constant
  70. Bit rate                                 : 640 kb/s
  71. Channel(s)                               : 6 channels
  72. Channel layout                           : L R C LFE Ls Rs
  73. Sampling rate                            : 48.0 kHz
  74. Frame rate                               : 31.250 FPS (1536 SPF)
  75. Compression mode                         : Lossy
  76. Stream size                              : 476 MiB (6%)
  77. Title                                    : espa?ol
  78. Language                                 : Spanish
  79. Service kind                             : Complete Main
  80. Default                                  : No
  81. Forced                                   : No
  82. Audio #3
  83. ID                                       : 4
  84. Format                                   : E-AC-3
  85. Format/Info                              : Enhanced AC-3
  86. Commercial name                          : Dolby Digital Plus
  87. Codec ID                                 : A_EAC3
  88. Duration                                 : 1 h 43 min
  89. Bit rate mode                            : Constant
  90. Bit rate                                 : 640 kb/s
  91. Channel(s)                               : 6 channels
  92. Channel layout                           : L R C LFE Ls Rs
  93. Sampling rate                            : 48.0 kHz
  94. Frame rate                               : 31.250 FPS (1536 SPF)
  95. Compression mode                         : Lossy
  96. Stream size                              : 476 MiB (6%)
  97. Title                                    : 日本語
  98. Language                                 : Japanese
  99. Service kind                             : Complete Main
  100. Default                                  : No
  101. Forced                                   : No
  102. Audio #4
  103. ID                                       : 5
  104. Format                                   : E-AC-3
  105. Format/Info                              : Enhanced AC-3
  106. Commercial name                          : Dolby Digital Plus
  107. Codec ID                                 : A_EAC3
  108. Duration                                 : 1 h 43 min
  109. Bit rate mode                            : Constant
  110. Bit rate                                 : 640 kb/s
  111. Channel(s)                               : 6 channels
  112. Channel layout                           : L R C LFE Ls Rs
  113. Sampling rate                            : 48.0 kHz
  114. Frame rate                               : 31.250 FPS (1536 SPF)
  115. Compression mode                         : Lossy
  116. Stream size                              : 476 MiB (6%)
  117. Title                                    : Deutsch
  118. Language                                 : German
  119. Service kind                             : Complete Main
  120. Default                                  : No
  121. Forced                                   : No
  122. Audio #5
  123. ID                                       : 6
  124. Format                                   : E-AC-3
  125. Format/Info                              : Enhanced AC-3
  126. Commercial name                          : Dolby Digital Plus
  127. Codec ID                                 : A_EAC3
  128. Duration                                 : 1 h 43 min
  129. Bit rate mode                            : Constant
  130. Bit rate                                 : 640 kb/s
  131. Channel(s)                               : 6 channels
  132. Channel layout                           : L R C LFE Ls Rs
  133. Sampling rate                            : 48.0 kHz
  134. Frame rate                               : 31.250 FPS (1536 SPF)
  135. Compression mode                         : Lossy
  136. Stream size                              : 476 MiB (6%)
  137. Title                                    : fran?ais
  138. Language                                 : French
  139. Service kind                             : Complete Main
  140. Default                                  : No
  141. Forced                                   : No
  142. Audio #6
  143. ID                                       : 7
  144. Format                                   : E-AC-3
  145. Format/Info                              : Enhanced AC-3
  146. Commercial name                          : Dolby Digital Plus
  147. Codec ID                                 : A_EAC3
  148. Duration                                 : 1 h 43 min
  149. Bit rate mode                            : Constant
  150. Bit rate                                 : 640 kb/s
  151. Channel(s)                               : 6 channels
  152. Channel layout                           : L R C LFE Ls Rs
  153. Sampling rate                            : 48.0 kHz
  154. Frame rate                               : 31.250 FPS (1536 SPF)
  155. Compression mode                         : Lossy
  156. Stream size                              : 476 MiB (6%)
  157. Title                                    : italiano
  158. Language                                 : Italian
  159. Service kind                             : Complete Main
  160. Default                                  : No
  161. Forced                                   : No
  162. Audio #7
  163. ID                                       : 8
  164. Format                                   : E-AC-3
  165. Format/Info                              : Enhanced AC-3
  166. Commercial name                          : Dolby Digital Plus
  167. Codec ID                                 : A_EAC3
  168. Duration                                 : 1 h 43 min
  169. Bit rate mode                            : Constant
  170. Bit rate                                 : 640 kb/s
  171. Channel(s)                               : 6 channels
  172. Channel layout                           : L R C LFE Ls Rs
  173. Sampling rate                            : 48.0 kHz
  174. Frame rate                               : 31.250 FPS (1536 SPF)
  175. Compression mode                         : Lossy
  176. Stream size                              : 476 MiB (6%)
  177. Title                                    : português
  178. Language                                 : Portuguese
  179. Service kind                             : Complete Main
  180. Default                                  : No
  181. Forced                                   : No
  182. Text #1
  183. ID                                       : 9
  184. Format                                   : UTF-8
  185. Codec ID                                 : S_TEXT/UTF8
  186. Codec ID/Info                            : UTF-8 Plain Text
  187. Duration                                 : 1 h 42 min
  188. Bit rate                                 : 60 b/s
  189. Count of elements                        : 1380
  190. Stream size                              : 45.6 KiB (0%)
  191. Title                                    : 中文 (简体)
  192. Language                                 : Chinese
  193. Default                                  : Yes
  194. Forced                                   : No
  195. Text #2
  196. ID                                       : 10
  197. Format                                   : UTF-8
  198. Codec ID                                 : S_TEXT/UTF8
  199. Codec ID/Info                            : UTF-8 Plain Text
  200. Duration                                 : 1 h 42 min
  201. Bit rate                                 : 61 b/s
  202. Count of elements                        : 1374
  203. Stream size                              : 46.0 KiB (0%)
  204. Title                                    : 中文 (繁體)
  205. Language                                 : Chinese
  206. Default                                  : No
  207. Forced                                   : No
  208. Text #3
  209. ID                                       : 11
  210. Format                                   : UTF-8
  211. Codec ID                                 : S_TEXT/UTF8
  212. Codec ID/Info                            : UTF-8 Plain Text
  213. Duration                                 : 1 h 40 min
  214. Bit rate                                 : 81 b/s
  215. Count of elements                        : 1858
  216. Stream size                              : 60.2 KiB (0%)
  217. Title                                    : English (United States)
  218. Language                                 : English
  219. Default                                  : No
  220. Forced                                   : No
  221. Text #4
  222. ID                                       : 12
  223. Format                                   : UTF-8
  224. Codec ID                                 : S_TEXT/UTF8
  225. Codec ID/Info                            : UTF-8 Plain Text
  226. Duration                                 : 1 h 42 min
  227. Bit rate                                 : 90 b/s
  228. Count of elements                        : 1377
  229. Stream size                              : 68.4 KiB (0%)
  230. Title                                    : ??????? (??????)
  231. Language                                 : Arabic
  232. Default                                  : No
  233. Forced                                   : No
  234. Text #5
  235. ID                                       : 13
  236. Format                                   : UTF-8
  237. Codec ID                                 : S_TEXT/UTF8
  238. Codec ID/Info                            : UTF-8 Plain Text
  239. Duration                                 : 1 h 42 min
  240. Bit rate                                 : 56 b/s
  241. Count of elements                        : 1421
  242. Stream size                              : 42.7 KiB (0%)
  243. Title                                    : ?e?tina (?esko)
  244. Language                                 : Czech
  245. Default                                  : No
  246. Forced                                   : No
  247. Text #6
  248. ID                                       : 14
  249. Format                                   : UTF-8
  250. Codec ID                                 : S_TEXT/UTF8
  251. Codec ID/Info                            : UTF-8 Plain Text
  252. Duration                                 : 1 h 42 min
  253. Bit rate                                 : 60 b/s
  254. Count of elements                        : 1356
  255. Stream size                              : 45.2 KiB (0%)
  256. Title                                    : dansk (Danmark)
  257. Language                                 : Danish
  258. Default                                  : No
  259. Forced                                   : No
  260. Text #7
  261. ID                                       : 15
  262. Format                                   : UTF-8
  263. Codec ID                                 : S_TEXT/UTF8
  264. Codec ID/Info                            : UTF-8 Plain Text
  265. Duration                                 : 1 h 42 min
  266. Bit rate                                 : 54 b/s
  267. Count of elements                        : 1368
  268. Stream size                              : 40.7 KiB (0%)
  269. Title                                    : Deutsch (Deutschland)
  270. Language                                 : German
  271. Default                                  : No
  272. Forced                                   : No
  273. Text #8
  274. ID                                       : 16
  275. Format                                   : UTF-8
  276. Codec ID                                 : S_TEXT/UTF8
  277. Codec ID/Info                            : UTF-8 Plain Text
  278. Duration                                 : 1 h 42 min
  279. Bit rate                                 : 108 b/s
  280. Count of elements                        : 1428
  281. Stream size                              : 81.6 KiB (0%)
  282. Title                                    : Ελληνικ? (Ελλ?δα)
  283. Language                                 : Greek
  284. Default                                  : No
  285. Forced                                   : No
  286. Text #9
  287. ID                                       : 17
  288. Format                                   : UTF-8
  289. Codec ID                                 : S_TEXT/UTF8
  290. Codec ID/Info                            : UTF-8 Plain Text
  291. Duration                                 : 1 h 42 min
  292. Bit rate                                 : 61 b/s
  293. Count of elements                        : 1426
  294. Stream size                              : 46.3 KiB (0%)
  295. Title                                    : espa?ol (Latinoamérica)
  296. Language                                 : Spanish
  297. Default                                  : No
  298. Forced                                   : No
  299. Text #10
  300. ID                                       : 18
  301. Format                                   : UTF-8
  302. Codec ID                                 : S_TEXT/UTF8
  303. Codec ID/Info                            : UTF-8 Plain Text
  304. Duration                                 : 1 h 42 min
  305. Bit rate                                 : 62 b/s
  306. Count of elements                        : 1360
  307. Stream size                              : 47.4 KiB (0%)
  308. Title                                    : espa?ol (Espa?a)
  309. Language                                 : Spanish
  310. Default                                  : No
  311. Forced                                   : No
  312. Text #11
  313. ID                                       : 19
  314. Format                                   : UTF-8
  315. Codec ID                                 : S_TEXT/UTF8
  316. Codec ID/Info                            : UTF-8 Plain Text
  317. Duration                                 : 1 h 42 min
  318. Bit rate                                 : 60 b/s
  319. Count of elements                        : 1348
  320. Stream size                              : 45.6 KiB (0%)
  321. Title                                    : suomi (Suomi)
  322. Language                                 : Finnish
  323. Default                                  : No
  324. Forced                                   : No
  325. Text #12
  326. ID                                       : 20
  327. Format                                   : UTF-8
  328. Codec ID                                 : S_TEXT/UTF8
  329. Codec ID/Info                            : UTF-8 Plain Text
  330. Duration                                 : 1 h 42 min
  331. Bit rate                                 : 68 b/s
  332. Count of elements                        : 1298
  333. Stream size                              : 51.3 KiB (0%)
  334. Title                                    : Filipino (Pilipinas)
  335. Language                                 : fil
  336. Default                                  : No
  337. Forced                                   : No
  338. Text #13
  339. ID                                       : 21
  340. Format                                   : UTF-8
  341. Codec ID                                 : S_TEXT/UTF8
  342. Codec ID/Info                            : UTF-8 Plain Text
  343. Duration                                 : 1 h 42 min
  344. Bit rate                                 : 61 b/s
  345. Count of elements                        : 1356
  346. Stream size                              : 46.4 KiB (0%)
  347. Title                                    : fran?ais (France)
  348. Language                                 : French
  349. Default                                  : No
  350. Forced                                   : No
  351. Text #14
  352. ID                                       : 22
  353. Format                                   : UTF-8
  354. Codec ID                                 : S_TEXT/UTF8
  355. Codec ID/Info                            : UTF-8 Plain Text
  356. Duration                                 : 1 h 42 min
  357. Bit rate                                 : 91 b/s
  358. Count of elements                        : 1373
  359. Stream size                              : 69.2 KiB (0%)
  360. Title                                    : ????? (?????)
  361. Language                                 : Hebrew
  362. Default                                  : No
  363. Forced                                   : No
  364. Text #15
  365. ID                                       : 23
  366. Format                                   : UTF-8
  367. Codec ID                                 : S_TEXT/UTF8
  368. Codec ID/Info                            : UTF-8 Plain Text
  369. Duration                                 : 1 h 42 min
  370. Bit rate                                 : 167 b/s
  371. Count of elements                        : 1370
  372. Stream size                              : 126 KiB (0%)
  373. Title                                    : ?????? (????)
  374. Language                                 : Hindi
  375. Default                                  : No
  376. Forced                                   : No
  377. Text #16
  378. ID                                       : 24
  379. Format                                   : UTF-8
  380. Codec ID                                 : S_TEXT/UTF8
  381. Codec ID/Info                            : UTF-8 Plain Text
  382. Duration                                 : 1 h 42 min
  383. Bit rate                                 : 61 b/s
  384. Count of elements                        : 1425
  385. Stream size                              : 46.5 KiB (0%)
  386. Title                                    : magyar (Magyarország)
  387. Language                                 : Hungarian
  388. Default                                  : No
  389. Forced                                   : No
  390. Text #17
  391. ID                                       : 25
  392. Format                                   : UTF-8
  393. Codec ID                                 : S_TEXT/UTF8
  394. Codec ID/Info                            : UTF-8 Plain Text
  395. Duration                                 : 1 h 42 min
  396. Bit rate                                 : 63 b/s
  397. Count of elements                        : 1351
  398. Stream size                              : 47.7 KiB (0%)
  399. Title                                    : bahasa Indonesia (Indonesia)
  400. Language                                 : Indonesian
  401. Default                                  : No
  402. Forced                                   : No
  403. Text #18
  404. ID                                       : 26
  405. Format                                   : UTF-8
  406. Codec ID                                 : S_TEXT/UTF8
  407. Codec ID/Info                            : UTF-8 Plain Text
  408. Duration                                 : 1 h 43 min
  409. Bit rate                                 : 69 b/s
  410. Count of elements                        : 1384
  411. Stream size                              : 52.5 KiB (0%)
  412. Title                                    : italiano (Italia)
  413. Language                                 : Italian
  414. Default                                  : No
  415. Forced                                   : No
  416. Text #19
  417. ID                                       : 27
  418. Format                                   : UTF-8
  419. Codec ID                                 : S_TEXT/UTF8
  420. Codec ID/Info                            : UTF-8 Plain Text
  421. Duration                                 : 1 h 37 min
  422. Bit rate                                 : 56 b/s
  423. Count of elements                        : 1311
  424. Stream size                              : 40.1 KiB (0%)
  425. Title                                    : 日本語 (日本)
  426. Language                                 : Japanese
  427. Default                                  : No
  428. Forced                                   : No
  429. Text #20
  430. ID                                       : 28
  431. Format                                   : UTF-8
  432. Codec ID                                 : S_TEXT/UTF8
  433. Codec ID/Info                            : UTF-8 Plain Text
  434. Duration                                 : 1 h 42 min
  435. Bit rate                                 : 69 b/s
  436. Count of elements                        : 1377
  437. Stream size                              : 52.1 KiB (0%)
  438. Title                                    : ??? (????)
  439. Language                                 : Korean
  440. Default                                  : No
  441. Forced                                   : No
  442. Text #21
  443. ID                                       : 29
  444. Format                                   : UTF-8
  445. Codec ID                                 : S_TEXT/UTF8
  446. Codec ID/Info                            : UTF-8 Plain Text
  447. Duration                                 : 1 h 42 min
  448. Bit rate                                 : 70 b/s
  449. Count of elements                        : 1378
  450. Stream size                              : 52.9 KiB (0%)
  451. Title                                    : bahasa Malaysia (Malaysia)
  452. Language                                 : Malay
  453. Default                                  : No
  454. Forced                                   : No
  455. Text #22
  456. ID                                       : 30
  457. Format                                   : UTF-8
  458. Codec ID                                 : S_TEXT/UTF8
  459. Codec ID/Info                            : UTF-8 Plain Text
  460. Duration                                 : 1 h 42 min
  461. Bit rate                                 : 57 b/s
  462. Count of elements                        : 1357
  463. Stream size                              : 43.1 KiB (0%)
  464. Title                                    : norsk bokm?l (Norge)
  465. Language                                 : Norwegian Bokmal
  466. Default                                  : No
  467. Forced                                   : No
  468. Text #23
  469. ID                                       : 31
  470. Format                                   : UTF-8
  471. Codec ID                                 : S_TEXT/UTF8
  472. Codec ID/Info                            : UTF-8 Plain Text
  473. Duration                                 : 1 h 43 min
  474. Bit rate                                 : 54 b/s
  475. Count of elements                        : 994
  476. Stream size                              : 41.0 KiB (0%)
  477. Title                                    : Nederlands (Nederland)
  478. Language                                 : Dutch
  479. Default                                  : No
  480. Forced                                   : No
  481. Text #24
  482. ID                                       : 32
  483. Format                                   : UTF-8
  484. Codec ID                                 : S_TEXT/UTF8
  485. Codec ID/Info                            : UTF-8 Plain Text
  486. Duration                                 : 1 h 42 min
  487. Bit rate                                 : 59 b/s
  488. Count of elements                        : 1293
  489. Stream size                              : 44.8 KiB (0%)
  490. Title                                    : polski (Polska)
  491. Language                                 : Polish
  492. Default                                  : No
  493. Forced                                   : No
  494. Text #25
  495. ID                                       : 33
  496. Format                                   : UTF-8
  497. Codec ID                                 : S_TEXT/UTF8
  498. Codec ID/Info                            : UTF-8 Plain Text
  499. Duration                                 : 1 h 38 min
  500. Bit rate                                 : 56 b/s
  501. Count of elements                        : 1239
  502. Stream size                              : 40.7 KiB (0%)
  503. Title                                    : português (Brasil)
  504. Language                                 : Portuguese
  505. Default                                  : No
  506. Forced                                   : No
  507. Text #26
  508. ID                                       : 34
  509. Format                                   : UTF-8
  510. Codec ID                                 : S_TEXT/UTF8
  511. Codec ID/Info                            : UTF-8 Plain Text
  512. Duration                                 : 1 h 42 min
  513. Bit rate                                 : 63 b/s
  514. Count of elements                        : 1359
  515. Stream size                              : 47.5 KiB (0%)
  516. Title                                    : português (Portugal)
  517. Language                                 : Portuguese
  518. Default                                  : No
  519. Forced                                   : No
  520. Text #27
  521. ID                                       : 35
  522. Format                                   : UTF-8
  523. Codec ID                                 : S_TEXT/UTF8
  524. Codec ID/Info                            : UTF-8 Plain Text
  525. Duration                                 : 1 h 42 min
  526. Bit rate                                 : 63 b/s
  527. Count of elements                        : 1416
  528. Stream size                              : 48.2 KiB (0%)
  529. Title                                    : roman? (Romania)
  530. Language                                 : Romanian
  531. Default                                  : No
  532. Forced                                   : No
  533. Text #28
  534. ID                                       : 36
  535. Format                                   : UTF-8
  536. Codec ID                                 : S_TEXT/UTF8
  537. Codec ID/Info                            : UTF-8 Plain Text
  538. Duration                                 : 1 h 42 min
  539. Bit rate                                 : 100 b/s
  540. Count of elements                        : 1369
  541. Stream size                              : 75.4 KiB (0%)
  542. Title                                    : русский (Россия)
  543. Language                                 : Russian
  544. Default                                  : No
  545. Forced                                   : No
  546. Text #29
  547. ID                                       : 37
  548. Format                                   : UTF-8
  549. Codec ID                                 : S_TEXT/UTF8
  550. Codec ID/Info                            : UTF-8 Plain Text
  551. Duration                                 : 1 h 42 min
  552. Bit rate                                 : 71 b/s
  553. Count of elements                        : 1360
  554. Stream size                              : 53.9 KiB (0%)
  555. Title                                    : svenska (Sverige)
  556. Language                                 : Swedish
  557. Default                                  : No
  558. Forced                                   : No
  559. Text #30
  560. ID                                       : 38
  561. Format                                   : UTF-8
  562. Codec ID                                 : S_TEXT/UTF8
  563. Codec ID/Info                            : UTF-8 Plain Text
  564. Duration                                 : 1 h 42 min
  565. Bit rate                                 : 195 b/s
  566. Count of elements                        : 1368
  567. Stream size                              : 147 KiB (0%)
  568. Title                                    : ????? (???????)
  569. Language                                 : Tamil
  570. Default                                  : No
  571. Forced                                   : No
  572. Text #31
  573. ID                                       : 39
  574. Format                                   : UTF-8
  575. Codec ID                                 : S_TEXT/UTF8
  576. Codec ID/Info                            : UTF-8 Plain Text
  577. Duration                                 : 1 h 42 min
  578. Bit rate                                 : 149 b/s
  579. Count of elements                        : 1369
  580. Stream size                              : 112 KiB (0%)
  581. Title                                    : ?????? (????????)
  582. Language                                 : Telugu
  583. Default                                  : No
  584. Forced                                   : No
  585. Text #32
  586. ID                                       : 40
  587. Format                                   : UTF-8
  588. Codec ID                                 : S_TEXT/UTF8
  589. Codec ID/Info                            : UTF-8 Plain Text
  590. Duration                                 : 1 h 42 min
  591. Bit rate                                 : 154 b/s
  592. Count of elements                        : 1378
  593. Stream size                              : 117 KiB (0%)
  594. Title                                    : ??? (???)
  595. Language                                 : Thai
  596. Default                                  : No
  597. Forced                                   : No
  598. Text #33
  599. ID                                       : 41
  600. Format                                   : UTF-8
  601. Codec ID                                 : S_TEXT/UTF8
  602. Codec ID/Info                            : UTF-8 Plain Text
  603. Duration                                 : 1 h 42 min
  604. Bit rate                                 : 62 b/s
  605. Count of elements                        : 1353
  606. Stream size                              : 47.4 KiB (0%)
  607. Title                                    : Türk?e (Türkiye)
  608. Language                                 : Turkish
  609. Default                                  : No
  610. Forced                                   : No
  611. Menu
  612. 00:00:00.000                             : en:Studio Logo
  613. 00:00:29.000                             : en:Brittany shirks her responsibilities
  614. 00:02:23.000                             : en:Title Sequence
  615. 00:02:26.000                             : en:A trip to the doctor
  616. 00:05:34.000                             : en:Feeling stuck
  617. 00:10:04.000                             : en:Hitting rock bottom
  618. 00:17:12.000                             : en:Setting little goals
  619. 00:23:57.000                             : en:Brittany's first 5k
  620. 00:28:20.000                             : en:A plan to run the marathon
  621. 00:30:34.000                             : en:A second stream of income
  622. 00:36:12.000                             : en:Transitioning into a new lifestyle
  623. 00:47:08.000                             : en:A desire to start dating
  624. 00:55:59.000                             : en:Things heat up with Jern
  625. 01:00:29.000                             : en:Finding your true friends
  626. 01:07:34.000                             : en:Paying attention to pain
  627. 01:12:10.000                             : en:Taking time to heal
  628. 01:21:33.000                             : en:Reconnecting and taking responsibility
  629. 01:29:15.000                             : en:The New York City Marathon
  630. 01:33:54.000                             : en:Finish strong
  631. 01:37:55.000                             : en:Acknowledgement
  632. 01:38:13.000                             : en:End Credits
复制代码

















保举请利用qBittorrent,utorrent,transmission等标准BT软件下载!以获得最快速度。奉求保种!





回复

使用道具 举报

懒得打字嘛,点击右侧快捷回复 【右侧内容,后台自定义】
您需要登录后才可以回帖 登录 | 立即加入

本版积分规则

Archiver|小黑屋| 蓝光电影网 |网站地图

Copyright © 2021 Comsenz Inc. Powered by 蓝光电影网

蓝光电影网

本站内容由用户自主分享和转载自互联网,转载目的在于传递更多信息,并不代表本网赞同其观点和对其真实性负责。

如有侵权、违反国家法律政策行为,请联系我们,我们会第一时间及时清除和处理!

举报反馈邮箱:[email protected]

快速回复 返回顶部 返回列表