找回密码

蓝光电影网

查看: 55|回复: 1

[剧情] 偷龙转凤[中文字幕].How.to.Steal.a.Million.1966.1080p.BluRay.DTS.x265-10bit-BATHD 7.36GB

[复制链接]
蓝光币
7
发表于 2022-7-31 01:59:08 | 显示全部楼层 |阅读模式


◎标  题 偷龙转凤
◎译  名 赝品 / How to Steal a Million Dollars and Live Happily Ever After
◎片  名 How to Steal a Million
◎年  代 1966
◎产  地 美国
◎类  别 笑剧 / 恋爱 / 犯罪
◎语  言 英语
◎上映日期 1966-07-13
◎IMDb评分 7.6/10 (26471人评价)
◎IMDb链接 https://www.imdb.com/title/tt0060522/
◎豆瓣评分 8.1/10 (10055人评价)
◎豆瓣链接 https://movie.douban.com/subject/1293864/
◎片  长 123 分钟
◎导  演 威廉·惠勒 William Wyler
◎编  剧 哈里·库尼兹 Harry Kurnitz
◎演  员 奥黛丽·赫本 Audrey Hepburn
       彼得·奥图尔 Peter O'Toole
       埃里·瓦拉赫 Eli Wallach
       休·格里夫斯 Hugh Griffith
       查尔斯·博耶 Charles Boyer
◎标  签 奥黛丽·赫本 / 笑剧 / 美国 / 恋爱 / AudreyHepburn / 典范 / 美国电影 / 1966
◎简  介
    妮可·伯纳特(奥黛丽·赫本 Audrey Hepburn饰),富有的收藏家查尔斯·伯纳特(休·格里夫斯 Hugh Griffith饰)之女。妮可不但美丽标致更很是聪明聪明。一日,法国巴黎一所博物馆行将举行一次艺术品展览,爱好摹仿名作制造赝品的父亲竟受邀加入美术展。但是这件被视为巨大佳构的维纳斯雕像,实在是她祖父制造的赝品,而父亲不但答应让博物馆将它展出,还在保险公司发现是膺品前为它买下一百万美圆的保险。工作一旦内情毕露,家属势必臭名昭著、毁于一旦。为助父亲度过难关,妮可聘请了一位高明的神偷西蒙·德莫特(彼德·奥图 Peter O'Toole饰)去把雕塑偷走。一位风姿潇洒的雅贼,一位机智美丽的美人,在盗窃行动中,两人破天荒地相爱了。但是西蒙的实在身份,却让妮可大为震动。                                                                      美国著名导演威廉·惠勒继《罗马沐日》大获成功以后,与著名影星奥黛丽·赫本再度合作,拍摄了本部带有轻笑剧和浪漫色彩的犯罪影片《偷龙转凤》。精巧周密的剧情设想,惠勒标志性的高明镜头调剂,为本片增加了几分黑色与嘲讽的意味。
  1. ##### MediaInfo ######
  2. General
  3. Unique ID                                : 209047219588426062658952204997991341749 (0x9D4507AE0E2D8E712AF042B446681EB5)
  4. Complete name                            : How.to.Steal.a.Million.1966.1080p.BluRay.DTS.x265-10bit-BATHD.mkv
  5. Format                                   : Matroska
  6. Format version                           : Version 4
  7. File size                                : 7.36 GiB
  8. Duration                                 : 2 h 3 min
  9. Overall bit rate                         : 8 540 kb/s
  10. Movie name                               : How to Steal a Million 1966 1080p BluRay DTS x265-10bit-HDS
  11. Encoded date                             : UTC 2022-07-28 23:39:34
  12. Writing application                      : mkvmerge v67.0.0 ('Under Stars') 64-bit
  13. Writing library                          : libebml v1.4.2 + libmatroska v1.6.4
  14. Video
  15. ID                                       : 1
  16. Format                                   : HEVC
  17. Format/Info                              : High Efficiency Video Coding
  18. Format profile                           : Main [email protected]@High
  19. Codec ID                                 : V_MPEGH/ISO/HEVC
  20. Duration                                 : 2 h 3 min
  21. Bit rate                                 : 7 740 kb/s
  22. Width                                    : 1 920 pixels
  23. Height                                   : 816 pixels
  24. Display aspect ratio                     : 2.35:1
  25. Frame rate mode                          : Constant
  26. Frame rate                               : 23.976 (24000/1001/53875) FPS
  27. Color space                              : YUV
  28. Chroma subsampling                       : 4:2:0
  29. Bit depth                                : 10 bits
  30. Bits/(Pixel*Frame)                       : 0.206
  31. Stream size                              : 6.67 GiB (91%)
  32. Title                                    : @HDSky
  33. Writing library                          : x265 - H.265/HEVC codec
  34. Default                                  : Yes
  35. Forced                                   : No
  36. Audio
  37. ID                                       : 2
  38. Format                                   : DTS
  39. Format/Info                              : Digital Theater Systems
  40. Codec ID                                 : A_DTS
  41. Duration                                 : 2 h 3 min
  42. Bit rate mode                            : Constant
  43. Bit rate                                 : 768 kb/s
  44. Channel(s)                               : 2 channels
  45. Channel layout                           : L R
  46. Sampling rate                            : 48.0 kHz
  47. Frame rate                               : 93.750 FPS (512 SPF)
  48. Bit depth                                : 24 bits
  49. Compression mode                         : Lossy
  50. Stream size                              : 678 MiB (9%)
  51. Title                                    : English
  52. Language                                 : English
  53. Default                                  : Yes
  54. Forced                                   : No
  55. Text #1
  56. ID                                       : 3
  57. Format                                   : PGS
  58. Muxing mode                              : zlib
  59. Codec ID                                 : S_HDMV/PGS
  60. Codec ID/Info                            : Picture based subtitle format used on BDs/HD-DVDs
  61. Duration                                 : 2 h 2 min
  62. Bit rate                                 : 22.5 kb/s
  63. Count of elements                        : 2364
  64. Stream size                              : 19.7 MiB (0%)
  65. Title                                    : CHS
  66. Language                                 : Chinese
  67. Default                                  : Yes
  68. Forced                                   : No
  69. Text #2
  70. ID                                       : 4
  71. Format                                   : PGS
  72. Muxing mode                              : zlib
  73. Codec ID                                 : S_HDMV/PGS
  74. Codec ID/Info                            : Picture based subtitle format used on BDs/HD-DVDs
  75. Duration                                 : 2 h 2 min
  76. Bit rate                                 : 23.3 kb/s
  77. Count of elements                        : 2364
  78. Stream size                              : 20.4 MiB (0%)
  79. Title                                    : CHT
  80. Language                                 : Chinese
  81. Default                                  : Yes
  82. Forced                                   : No
  83. Menu
  84. 00:00:00.000                             : en:第 01 章
  85. 00:03:21.868                             : en:第 02 章
  86. 00:11:03.329                             : en:第 03 章
  87. 00:15:21.712                             : en:第 04 章
  88. 00:21:15.065                             : en:第 05 章
  89. 00:25:11.885                             : en:第 06 章
  90. 00:31:31.598                             : en:第 07 章
  91. 00:36:03.495                             : en:第 08 章
  92. 00:41:27.944                             : en:第 09 章
  93. 00:48:18.395                             : en:第 10 章
  94. 00:52:48.499                             : en:第 11 章
  95. 00:58:24.626                             : en:第 12 章
  96. 01:06:13.344                             : en:第 13 章
  97. 01:10:42.613                             : en:第 14 章
  98. 01:14:58.494                             : en:第 15 章
  99. 01:18:45.554                             : en:第 16 章
  100. 01:24:02.162                             : en:第 17 章
  101. 01:30:46.399                             : en:第 18 章
  102. 01:33:00.950                             : en:第 19 章
  103. 01:36:59.856                             : en:第 20 章
  104. 01:40:33.986                             : en:第 21 章
  105. 01:44:58.375                             : en:第 22 章
  106. 01:50:33.085                             : en:第 23 章
  107. 01:59:34.542                             : en:第 24 章
复制代码

















保举请利用qBittorrent,utorrent,transmission等标准BT软件下载!以获得最快速度。奉求保种!





回复

使用道具 举报

蓝光币
99
发表于 2022-8-1 20:35:08 | 显示全部楼层
1966年的电影,DTS-X的音效,那么早就有吗?
回复 支持 反对

使用道具 举报

懒得打字嘛,点击右侧快捷回复 【右侧内容,后台自定义】
您需要登录后才可以回帖 登录 | 立即加入

本版积分规则

Archiver|小黑屋| 蓝光电影网 |网站地图

Copyright © 2021 Comsenz Inc. Powered by 蓝光电影网

蓝光电影网

本站内容由用户自主分享和转载自互联网,转载目的在于传递更多信息,并不代表本网赞同其观点和对其真实性负责。

如有侵权、违反国家法律政策行为,请联系我们,我们会第一时间及时清除和处理!

举报反馈邮箱:[email protected]

快速回复 返回顶部 返回列表