找回密码

蓝光电影网

查看: 23|回复: 0

[剧情] 外出就餐4:戏剧营[简繁英字幕].Eating.Out.Drama.Camp.2011.1080p.GL.WEB-DL.H264.AAC-TAGWEB 2.83GB

[复制链接]
蓝光币
7
发表于 2022-7-31 01:59:08 | 显示全部楼层 |阅读模式


◎标  题 外出就餐4:戏剧营
◎译  名 外出就餐4:骚演营
◎片  名 Eating Out 4: Drama Camp
◎年  代 2011
◎产  地 美国
◎类  别 笑剧 / 恋爱 / 同性
◎语  言 英语
◎上映日期 2011-07-01(美国)
◎IMDb评分 5.2/10 (2443人评价)
◎IMDb链接 https://www.imdb.com/title/tt1833845/
◎豆瓣评分 5.8/10 (2233人评价)
◎豆瓣链接 https://movie.douban.com/subject/6524283/
◎片  长 120分钟
◎导  演 亚伦·布洛卡 Q. Allan Brocka
◎编  剧 亚伦·布洛卡 Q. Allan Brocka
       菲利普·J·巴特尔 Phillip J. Bartell
◎演  员 克里斯·萨尔瓦多 Chris Salvatore
       丹尼尔·史柯顿 Daniel Skelton
       艾隆·米洛 Aaron Milo
       哈蒙尼·桑塔纳 Harmony Santana
       Garikayi Mutambirwa Garikayi Mutambirwa
       德鲁·德勒格 Drew Droege
       乔尔·拉什 Joel Rush
       朗尼·克罗 Ronnie Kroell
       Steven Daigle Steven Daigle
       杰西·阿彻 Jesse Archer
       敏科·斯荳 Mink Stole
       利百加·科汉 Rebekah Kochan
        Joe Filippone
◎简  介
  承接“贪吃自助”,扎克与凯西的关系堕入冰河期,但他们报名的夏日戏剧营已经不能取消。来到营地后两人各有际遇:扎克与饰演对手戏的本奇互生好感,但后者一向谎称直男;凯西感遭到威胁,乞助同人女潘妮成果越帮越忙,更懵不知自己沦为同室帅哥比欧的猎物。来添乱的是,荡女蒂凡尼一跃成为戏剧教员,靠拍同道片沟女的指导员杰森对变性门生莉莉不由自立,海伦阿姨居然由于一个叫安迪的壮男抖擞第二春!固然人在抓马营,湿情不自禁,此次他们要糟践——噢不,表演——的剧目是莎士比亚的名作:驯悍记。强攻强受的尔虞我诈同时在真假两个舞台上演..……
  1. ##### MediaInfo ######
  2. General
  3. Unique ID                                : 151444398285185140644381852324594075858 (0x71EF2151F350237D1732B6507C2648D2)
  4. Complete name                            : Eating.Out.Drama.Camp.2011.1080p.GL.WEB-DL.H264.AAC-TAGWEB.mkv
  5. Format                                   : Matroska
  6. Format version                           : Version 4
  7. File size                                : 2.83 GiB
  8. Duration                                 : 1 h 30 min
  9. Overall bit rate                         : 4 450 kb/s
  10. Encoded date                             : UTC 2022-03-25 02:05:49
  11. Writing application                      : mkvmerge v66.0.0 ('Josie') 64-bit
  12. Writing library                          : libebml v1.4.2 + libmatroska v1.6.4
  13. Video
  14. ID                                       : 1
  15. Format                                   : AVC
  16. Format/Info                              : Advanced Video Codec
  17. Format profile                           : [email protected]
  18. Format settings                          : CABAC / 5 Ref Frames
  19. Format settings, CABAC                   : Yes
  20. Format settings, Reference frames        : 5 frames
  21. Codec ID                                 : V_MPEG4/ISO/AVC
  22. Duration                                 : 1 h 30 min
  23. Bit rate                                 : 4 322 kb/s
  24. Width                                    : 1 920 pixels
  25. Height                                   : 1 080 pixels
  26. Display aspect ratio                     : 16:9
  27. Frame rate mode                          : Constant
  28. Frame rate                               : 24.000 FPS
  29. Color space                              : YUV
  30. Chroma subsampling                       : 4:2:0
  31. Bit depth                                : 8 bits
  32. Scan type                                : Progressive
  33. Bits/(Pixel*Frame)                       : 0.087
  34. Stream size                              : 2.75 GiB (97%)
  35. Default                                  : Yes
  36. Forced                                   : No
  37. Audio
  38. ID                                       : 2
  39. Format                                   : AAC LC
  40. Format/Info                              : Advanced Audio Codec Low Complexity
  41. Codec ID                                 : A_AAC-2
  42. Duration                                 : 1 h 30 min
  43. Bit rate                                 : 125 kb/s
  44. Channel(s)                               : 2 channels
  45. Channel layout                           : L R
  46. Sampling rate                            : 48.0 kHz
  47. Frame rate                               : 46.875 FPS (1024 SPF)
  48. Compression mode                         : Lossy
  49. Stream size                              : 81.6 MiB (3%)
  50. Default                                  : Yes
  51. Forced                                   : No
  52. Text #1
  53. ID                                       : 3
  54. Format                                   : UTF-8
  55. Codec ID                                 : S_TEXT/UTF8
  56. Codec ID/Info                            : UTF-8 Plain Text
  57. Duration                                 : 1 h 30 min
  58. Bit rate                                 : 52 b/s
  59. Count of elements                        : 1481
  60. Stream size                              : 34.6 KiB (0%)
  61. Title                                    : Simplified Chinese
  62. Language                                 : Chinese
  63. Default                                  : Yes
  64. Forced                                   : No
  65. Text #2
  66. ID                                       : 4
  67. Format                                   : UTF-8
  68. Codec ID                                 : S_TEXT/UTF8
  69. Codec ID/Info                            : UTF-8 Plain Text
  70. Duration                                 : 1 h 30 min
  71. Bit rate                                 : 52 b/s
  72. Count of elements                        : 1481
  73. Stream size                              : 34.6 KiB (0%)
  74. Title                                    : Traditional Chinese
  75. Language                                 : Chinese
  76. Default                                  : No
  77. Forced                                   : No
  78. Text #3
  79. ID                                       : 5
  80. Format                                   : UTF-8
  81. Codec ID                                 : S_TEXT/UTF8
  82. Codec ID/Info                            : UTF-8 Plain Text
  83. Duration                                 : 1 h 30 min
  84. Bit rate                                 : 57 b/s
  85. Count of elements                        : 1478
  86. Stream size                              : 38.2 KiB (0%)
  87. Title                                    : English
  88. Language                                 : English
  89. Default                                  : No
  90. Forced                                   : No
  91. Text #4
  92. ID                                       : 6
  93. Format                                   : UTF-8
  94. Codec ID                                 : S_TEXT/UTF8
  95. Codec ID/Info                            : UTF-8 Plain Text
  96. Duration                                 : 1 h 30 min
  97. Bit rate                                 : 58 b/s
  98. Count of elements                        : 1478
  99. Stream size                              : 38.5 KiB (0%)
  100. Title                                    : Indonesian
  101. Language                                 : Indonesian
  102. Default                                  : No
  103. Forced                                   : No
  104. Text #5
  105. ID                                       : 7
  106. Format                                   : UTF-8
  107. Codec ID                                 : S_TEXT/UTF8
  108. Codec ID/Info                            : UTF-8 Plain Text
  109. Duration                                 : 1 h 30 min
  110. Bit rate                                 : 134 b/s
  111. Count of elements                        : 1481
  112. Stream size                              : 89.0 KiB (0%)
  113. Title                                    : Thai
  114. Language                                 : Thai
  115. Default                                  : No
  116. Forced                                   : No
复制代码

















保举请利用qBittorrent,utorrent,transmission等标准BT软件下载!以获得最快速度。奉求保种!





回复

使用道具 举报

懒得打字嘛,点击右侧快捷回复 【右侧内容,后台自定义】
您需要登录后才可以回帖 登录 | 立即加入

本版积分规则

Archiver|小黑屋| 蓝光电影网 |网站地图

Copyright © 2021 Comsenz Inc. Powered by 蓝光电影网

蓝光电影网

本站内容由用户自主分享和转载自互联网,转载目的在于传递更多信息,并不代表本网赞同其观点和对其真实性负责。

如有侵权、违反国家法律政策行为,请联系我们,我们会第一时间及时清除和处理!

举报反馈邮箱:[email protected]

快速回复 返回顶部 返回列表