找回密码

蓝光电影网

查看: 17|回复: 0

[剧情] 凯撒万岁[简繁英字幕].Hail.Caesar.2016.1080p.AMZN.WEB-DL.H264.DDP5.1-TAGWEB 10.69GB

[复制链接]
蓝光币
7
发表于 2022-7-31 01:59:17 | 显示全部楼层 |阅读模式


◎标  题 凯撒万岁
◎译  名 凯萨万岁(台) / 万千星辉绑架案(港) / 致敬恺撒
◎片  名 Hail, Caesar!
◎年  代 2016
◎产  地 英国 / 美国
◎类  别 笑剧 / 悬疑 / 歌舞
◎语  言 英语
◎上映日期 2016-02-05(美国) / 2016-03-04(英国)
◎IMDb评分 6.3/10 (129915人评价)
◎IMDb链接 https://www.imdb.com/title/tt0475290/
◎豆瓣评分 6.5/10 (13971人评价)
◎豆瓣链接 https://movie.douban.com/subject/2058751/
◎片  长 106分钟
◎导  演 伊桑·科恩 Ethan Coen
       乔尔·科恩 Joel Coen
◎编  剧 伊桑·科恩 Ethan Coen
       乔尔·科恩 Joel Coen
◎演  员 乔什·布洛林 Josh Brolin
       乔治·克鲁尼 George Clooney
       阿尔登·埃伦瑞奇 Alden Ehrenreich
       拉尔夫·费因斯 Ralph Fiennes
       乔纳·希尔 Jonah Hill
       斯嘉丽·约翰逊 Scarlett Johansson
       弗兰西斯·麦克多蒙德 Frances McDormand
       蒂尔达·斯文顿 Tilda Swinton
       查宁·塔图姆 Channing Tatum
       麦克斯·贝克 Max Baker
       海瑟·戈尔登赫什 Heather Goldenhersh
       克里斯多弗·兰伯特 Christopher Lambert
       费舍·史蒂芬斯 Fisher Stevens
       克兰西·布朗 Clancy Brown
       伊恩·布莱克曼 Ian Blackman
       弗雷德·迈拉麦德 Fred Melamed
       阿格妮丝·迪恩 Agyness Deyn
       派特里克·费斯克勒 Patrick Fischler
       罗伯特·皮卡多 Robert Picardo
       亚历克斯·卡普夫斯基 Alex Karpovsky
       杰弗里·坎特尔 Geoffrey Cantor
       皮特·杰森 Peter Jason
       艾米丽·比查姆 Emily Beecham
       蒂芙尼·朗斯代尔 Tiffany Lonsdale
       汤姆·马斯格雷夫 Tom Musgrave
       迈克尔·刚本 Michael Gambon
       Basil Hoffman Basil Hoffman
       格雷格·鲍德温 Greg Baldwin
       吉祥安·阿美娜特 Jillian Armenante
       詹姆士·奥斯汀·约翰逊 James Austin Johnson
       布里安娜·威廉姆斯 Boriana Williams
       娜塔莎·巴塞特 Natasha Bassett
       乔赛亚·布莱克 Josiah Black
       大卫·M·奥斯汀 David M. Austin
       丹尼斯·库克鲁姆 Dennis Cockrum
       艾丽森·皮尔 Alison Pill
       大卫·克朗姆霍茨 David Krumholtz
       杜夫·龙格尔 Dolph Lundgren
       Mike Watson Mike Watson
       Brian Brown Brian Brown
       帕特克·卡罗 Patrick Carroll
       马克·帕瑞施 Mark Parrish
       威尔·C Will C.
       尼可拉·芬恩 Nichola Fynn
       E·E·贝尔 E.E. Bell
       克莱门特·冯·弗兰肯斯坦 Clement von Franckenstein
       伊桑·科恩 Ethan Coen
       乔尔·科恩 Joel Coen
       卡特·伯韦尔 Carter Burwell
       罗杰·狄金斯 Roger Deakins
       乔尔·科恩 Joel Coen
       伊桑·科恩 Ethan Coen
       玛丽·索弗瑞斯 Mary Zophres
◎标  签 科恩兄弟 / 美国 / 笑剧 / 2016 / 黑色诙谐 / 剧情 / 歌舞 / 英国
◎简  介
  艾迪(乔什·布洛林 Josh Brolin 饰)是一位效力于国会制片厂的制片人,概况看来,这是一份鲜明亮丽的职业,艾迪成天收支于高端场所和宴会当中,打交道的都是大明星和各路社会名流,可现实上,艾迪真正在干的,是帮这群成天闲着没事干尽惹麻烦的巨婴们“擦屁股”的活计。                                    
                                导演劳伦斯(拉尔夫·费因斯 Ralph Fiennes 饰)不谨慎让著名女明星狄安娜(斯嘉丽·约翰逊 Scarlett Johansson 饰)怀孕了,艾迪必须想法子让这件事成为永久的奥秘。酗酒成性的老演员拜尔德(乔治·克鲁尼 George Clooney 饰)在新片行将开机之前居然遭人绑架,筹得10万美圆赎金的活也落在了艾迪的头上,除此之外,艾迪还要严防对明星八卦虎视眈眈的双胞胎娱记赛克姐妹(蒂尔达·斯文顿 Tilda Swinton 饰)。
  1. ##### MediaInfo ######
  2. General
  3. Unique ID                                : 297894062643393425017250516484624592736 (0xE01C4F3EAB582C009AAB69D572B1AF60)
  4. Complete name                            : Hail.Caesar.2016.1080p.AMZN.WEB-DL.H264.DDP5.1-TAGWEB.mkv
  5. Format                                   : Matroska
  6. Format version                           : Version 4
  7. File size                                : 10.7 GiB
  8. Duration                                 : 1 h 48 min
  9. Overall bit rate                         : 14.2 Mb/s
  10. Encoded date                             : UTC 2022-07-16 03:00:41
  11. Writing application                      : mkvmerge v67.0.0 ('Under Stars') 64-bit
  12. Writing library                          : libebml v1.4.2 + libmatroska v1.6.4
  13. Video
  14. ID                                       : 1
  15. Format                                   : AVC
  16. Format/Info                              : Advanced Video Codec
  17. Format profile                           : [email protected]
  18. Format settings                          : CABAC / 4 Ref Frames
  19. Format settings, CABAC                   : Yes
  20. Format settings, Reference frames        : 4 frames
  21. Codec ID                                 : V_MPEG4/ISO/AVC
  22. Duration                                 : 1 h 48 min
  23. Bit rate                                 : 9 672 kb/s
  24. Width                                    : 1 920 pixels
  25. Height                                   : 1 040 pixels
  26. Display aspect ratio                     : 1.85:1
  27. Frame rate mode                          : Constant
  28. Frame rate                               : 23.976 (24000/1001/53875) FPS
  29. Color space                              : YUV
  30. Chroma subsampling                       : 4:2:0
  31. Bit depth                                : 8 bits
  32. Scan type                                : Progressive
  33. Bits/(Pixel*Frame)                       : 0.202
  34. Stream size                              : 7.30 GiB (68%)
  35. Language                                 : English
  36. Default                                  : Yes
  37. Forced                                   : No
  38. Color range                              : Limited
  39. Color primaries                          : BT.709
  40. Transfer characteristics                 : BT.709
  41. Matrix coefficients                      : BT.709
  42. Audio #1
  43. ID                                       : 2
  44. Format                                   : E-AC-3
  45. Format/Info                              : Enhanced AC-3
  46. Commercial name                          : Dolby Digital Plus
  47. Codec ID                                 : A_EAC3
  48. Duration                                 : 1 h 48 min
  49. Bit rate mode                            : Constant
  50. Bit rate                                 : 640 kb/s
  51. Channel(s)                               : 6 channels
  52. Channel layout                           : L R C LFE Ls Rs
  53. Sampling rate                            : 48.0 kHz
  54. Frame rate                               : 31.250 FPS (1536 SPF)
  55. Compression mode                         : Lossy
  56. Stream size                              : 495 MiB (5%)
  57. Title                                    : English
  58. Language                                 : English
  59. Service kind                             : Complete Main
  60. Default                                  : Yes
  61. Forced                                   : No
  62. Audio #2
  63. ID                                       : 3
  64. Format                                   : E-AC-3
  65. Format/Info                              : Enhanced AC-3
  66. Commercial name                          : Dolby Digital Plus
  67. Codec ID                                 : A_EAC3
  68. Duration                                 : 1 h 48 min
  69. Bit rate mode                            : Constant
  70. Bit rate                                 : 640 kb/s
  71. Channel(s)                               : 6 channels
  72. Channel layout                           : L R C LFE Ls Rs
  73. Sampling rate                            : 48.0 kHz
  74. Frame rate                               : 31.250 FPS (1536 SPF)
  75. Compression mode                         : Lossy
  76. Stream size                              : 495 MiB (5%)
  77. Title                                    : espa?ol
  78. Language                                 : Spanish
  79. Service kind                             : Complete Main
  80. Default                                  : No
  81. Forced                                   : No
  82. Audio #3
  83. ID                                       : 4
  84. Format                                   : E-AC-3
  85. Format/Info                              : Enhanced AC-3
  86. Commercial name                          : Dolby Digital Plus
  87. Codec ID                                 : A_EAC3
  88. Duration                                 : 1 h 48 min
  89. Bit rate mode                            : Constant
  90. Bit rate                                 : 640 kb/s
  91. Channel(s)                               : 6 channels
  92. Channel layout                           : L R C LFE Ls Rs
  93. Sampling rate                            : 48.0 kHz
  94. Frame rate                               : 31.250 FPS (1536 SPF)
  95. Compression mode                         : Lossy
  96. Stream size                              : 495 MiB (5%)
  97. Title                                    : fran?ais
  98. Language                                 : French
  99. Service kind                             : Complete Main
  100. Default                                  : No
  101. Forced                                   : No
  102. Audio #4
  103. ID                                       : 5
  104. Format                                   : E-AC-3
  105. Format/Info                              : Enhanced AC-3
  106. Commercial name                          : Dolby Digital Plus
  107. Codec ID                                 : A_EAC3
  108. Duration                                 : 1 h 48 min
  109. Bit rate mode                            : Constant
  110. Bit rate                                 : 640 kb/s
  111. Channel(s)                               : 6 channels
  112. Channel layout                           : L R C LFE Ls Rs
  113. Sampling rate                            : 48.0 kHz
  114. Frame rate                               : 31.250 FPS (1536 SPF)
  115. Compression mode                         : Lossy
  116. Stream size                              : 495 MiB (5%)
  117. Title                                    : italiano
  118. Language                                 : Italian
  119. Service kind                             : Complete Main
  120. Default                                  : No
  121. Forced                                   : No
  122. Audio #5
  123. ID                                       : 6
  124. Format                                   : E-AC-3
  125. Format/Info                              : Enhanced AC-3
  126. Commercial name                          : Dolby Digital Plus
  127. Codec ID                                 : A_EAC3
  128. Duration                                 : 1 h 48 min
  129. Bit rate mode                            : Constant
  130. Bit rate                                 : 640 kb/s
  131. Channel(s)                               : 6 channels
  132. Channel layout                           : L R C LFE Ls Rs
  133. Sampling rate                            : 48.0 kHz
  134. Frame rate                               : 31.250 FPS (1536 SPF)
  135. Compression mode                         : Lossy
  136. Stream size                              : 495 MiB (5%)
  137. Title                                    : polski
  138. Language                                 : Polish
  139. Service kind                             : Complete Main
  140. Default                                  : No
  141. Forced                                   : No
  142. Audio #6
  143. ID                                       : 7
  144. Format                                   : E-AC-3
  145. Format/Info                              : Enhanced AC-3
  146. Commercial name                          : Dolby Digital Plus
  147. Codec ID                                 : A_EAC3
  148. Duration                                 : 1 h 48 min
  149. Bit rate mode                            : Constant
  150. Bit rate                                 : 640 kb/s
  151. Channel(s)                               : 6 channels
  152. Channel layout                           : L R C LFE Ls Rs
  153. Sampling rate                            : 48.0 kHz
  154. Frame rate                               : 31.250 FPS (1536 SPF)
  155. Compression mode                         : Lossy
  156. Stream size                              : 495 MiB (5%)
  157. Title                                    : português
  158. Language                                 : Portuguese
  159. Service kind                             : Complete Main
  160. Default                                  : No
  161. Forced                                   : No
  162. Audio #7
  163. ID                                       : 8
  164. Format                                   : E-AC-3
  165. Format/Info                              : Enhanced AC-3
  166. Commercial name                          : Dolby Digital Plus
  167. Codec ID                                 : A_EAC3
  168. Duration                                 : 1 h 48 min
  169. Bit rate mode                            : Constant
  170. Bit rate                                 : 640 kb/s
  171. Channel(s)                               : 6 channels
  172. Channel layout                           : L R C LFE Ls Rs
  173. Sampling rate                            : 48.0 kHz
  174. Frame rate                               : 31.250 FPS (1536 SPF)
  175. Compression mode                         : Lossy
  176. Stream size                              : 495 MiB (5%)
  177. Title                                    : Türk?e
  178. Language                                 : Turkish
  179. Service kind                             : Complete Main
  180. Default                                  : No
  181. Forced                                   : No
  182. Text #1
  183. ID                                       : 9
  184. Format                                   : UTF-8
  185. Codec ID                                 : S_TEXT/UTF8
  186. Codec ID/Info                            : UTF-8 Plain Text
  187. Duration                                 : 1 h 38 min
  188. Bit rate                                 : 69 b/s
  189. Count of elements                        : 1469
  190. Stream size                              : 49.9 KiB (0%)
  191. Title                                    : 中文 (简体)
  192. Language                                 : Chinese
  193. Default                                  : Yes
  194. Forced                                   : No
  195. Text #2
  196. ID                                       : 10
  197. Format                                   : UTF-8
  198. Codec ID                                 : S_TEXT/UTF8
  199. Codec ID/Info                            : UTF-8 Plain Text
  200. Duration                                 : 1 h 38 min
  201. Bit rate                                 : 68 b/s
  202. Count of elements                        : 1600
  203. Stream size                              : 49.6 KiB (0%)
  204. Title                                    : 中文 (繁體)
  205. Language                                 : Chinese
  206. Default                                  : No
  207. Forced                                   : No
  208. Text #3
  209. ID                                       : 11
  210. Format                                   : UTF-8
  211. Codec ID                                 : S_TEXT/UTF8
  212. Codec ID/Info                            : UTF-8 Plain Text
  213. Duration                                 : 1 h 45 min
  214. Bit rate                                 : 80 b/s
  215. Count of elements                        : 1667
  216. Stream size                              : 62.3 KiB (0%)
  217. Title                                    : English (United States)
  218. Language                                 : English
  219. Default                                  : No
  220. Forced                                   : No
  221. Text #4
  222. ID                                       : 12
  223. Format                                   : UTF-8
  224. Codec ID                                 : S_TEXT/UTF8
  225. Codec ID/Info                            : UTF-8 Plain Text
  226. Duration                                 : 1 h 44 min
  227. Bit rate                                 : 117 b/s
  228. Count of elements                        : 1737
  229. Stream size                              : 89.8 KiB (0%)
  230. Title                                    : ??????? (??????)
  231. Language                                 : Arabic
  232. Default                                  : No
  233. Forced                                   : No
  234. Text #5
  235. ID                                       : 13
  236. Format                                   : UTF-8
  237. Codec ID                                 : S_TEXT/UTF8
  238. Codec ID/Info                            : UTF-8 Plain Text
  239. Duration                                 : 1 h 45 min
  240. Bit rate                                 : 68 b/s
  241. Count of elements                        : 1206
  242. Stream size                              : 52.7 KiB (0%)
  243. Title                                    : ?e?tina (?esko)
  244. Language                                 : Czech
  245. Default                                  : No
  246. Forced                                   : No
  247. Text #6
  248. ID                                       : 14
  249. Format                                   : UTF-8
  250. Codec ID                                 : S_TEXT/UTF8
  251. Codec ID/Info                            : UTF-8 Plain Text
  252. Duration                                 : 1 h 38 min
  253. Bit rate                                 : 130 b/s
  254. Count of elements                        : 1576
  255. Stream size                              : 94.2 KiB (0%)
  256. Title                                    : Ελληνικ? (Ελλ?δα)
  257. Language                                 : Greek
  258. Default                                  : No
  259. Forced                                   : No
  260. Text #7
  261. ID                                       : 15
  262. Format                                   : UTF-8
  263. Codec ID                                 : S_TEXT/UTF8
  264. Codec ID/Info                            : UTF-8 Plain Text
  265. Duration                                 : 1 h 38 min
  266. Bit rate                                 : 78 b/s
  267. Count of elements                        : 1640
  268. Stream size                              : 56.2 KiB (0%)
  269. Title                                    : espa?ol (Latinoamérica)
  270. Language                                 : Spanish
  271. Default                                  : No
  272. Forced                                   : No
  273. Text #8
  274. ID                                       : 16
  275. Format                                   : UTF-8
  276. Codec ID                                 : S_TEXT/UTF8
  277. Codec ID/Info                            : UTF-8 Plain Text
  278. Duration                                 : 1 h 44 min
  279. Bit rate                                 : 74 b/s
  280. Count of elements                        : 1696
  281. Stream size                              : 57.3 KiB (0%)
  282. Title                                    : espa?ol (Espa?a)
  283. Language                                 : Spanish
  284. Default                                  : No
  285. Forced                                   : No
  286. Text #9
  287. ID                                       : 17
  288. Format                                   : UTF-8
  289. Codec ID                                 : S_TEXT/UTF8
  290. Codec ID/Info                            : UTF-8 Plain Text
  291. Duration                                 : 1 h 45 min
  292. Bit rate                                 : 89 b/s
  293. Count of elements                        : 1679
  294. Stream size                              : 69.4 KiB (0%)
  295. Title                                    : Filipino (Pilipinas)
  296. Language                                 : fil
  297. Default                                  : No
  298. Forced                                   : No
  299. Text #10
  300. ID                                       : 18
  301. Format                                   : UTF-8
  302. Codec ID                                 : S_TEXT/UTF8
  303. Codec ID/Info                            : UTF-8 Plain Text
  304. Duration                                 : 1 h 38 min
  305. Bit rate                                 : 78 b/s
  306. Count of elements                        : 1589
  307. Stream size                              : 56.4 KiB (0%)
  308. Title                                    : fran?ais (Canada)
  309. Language                                 : French
  310. Default                                  : No
  311. Forced                                   : No
  312. Text #11
  313. ID                                       : 19
  314. Format                                   : UTF-8
  315. Codec ID                                 : S_TEXT/UTF8
  316. Codec ID/Info                            : UTF-8 Plain Text
  317. Duration                                 : 1 h 44 min
  318. Bit rate                                 : 58 b/s
  319. Count of elements                        : 1451
  320. Stream size                              : 45.0 KiB (0%)
  321. Title                                    : fran?ais (France)
  322. Language                                 : French
  323. Default                                  : No
  324. Forced                                   : No
  325. Text #12
  326. ID                                       : 20
  327. Format                                   : UTF-8
  328. Codec ID                                 : S_TEXT/UTF8
  329. Codec ID/Info                            : UTF-8 Plain Text
  330. Duration                                 : 1 h 38 min
  331. Bit rate                                 : 117 b/s
  332. Count of elements                        : 1650
  333. Stream size                              : 84.5 KiB (0%)
  334. Title                                    : ????? (?????)
  335. Language                                 : Hebrew
  336. Default                                  : No
  337. Forced                                   : No
  338. Text #13
  339. ID                                       : 21
  340. Format                                   : UTF-8
  341. Codec ID                                 : S_TEXT/UTF8
  342. Codec ID/Info                            : UTF-8 Plain Text
  343. Duration                                 : 1 h 38 min
  344. Bit rate                                 : 185 b/s
  345. Count of elements                        : 1600
  346. Stream size                              : 134 KiB (0%)
  347. Title                                    : ?????? (????)
  348. Language                                 : Hindi
  349. Default                                  : No
  350. Forced                                   : No
  351. Text #14
  352. ID                                       : 22
  353. Format                                   : UTF-8
  354. Codec ID                                 : S_TEXT/UTF8
  355. Codec ID/Info                            : UTF-8 Plain Text
  356. Duration                                 : 1 h 38 min
  357. Bit rate                                 : 71 b/s
  358. Count of elements                        : 1556
  359. Stream size                              : 51.6 KiB (0%)
  360. Title                                    : magyar (Magyarország)
  361. Language                                 : Hungarian
  362. Default                                  : No
  363. Forced                                   : No
  364. Text #15
  365. ID                                       : 23
  366. Format                                   : UTF-8
  367. Codec ID                                 : S_TEXT/UTF8
  368. Codec ID/Info                            : UTF-8 Plain Text
  369. Duration                                 : 1 h 38 min
  370. Bit rate                                 : 73 b/s
  371. Count of elements                        : 1580
  372. Stream size                              : 52.6 KiB (0%)
  373. Title                                    : bahasa Indonesia (Indonesia)
  374. Language                                 : Indonesian
  375. Default                                  : No
  376. Forced                                   : No
  377. Text #16
  378. ID                                       : 24
  379. Format                                   : UTF-8
  380. Codec ID                                 : S_TEXT/UTF8
  381. Codec ID/Info                            : UTF-8 Plain Text
  382. Duration                                 : 1 h 38 min
  383. Bit rate                                 : 71 b/s
  384. Count of elements                        : 1593
  385. Stream size                              : 51.5 KiB (0%)
  386. Title                                    : italiano (Italia)
  387. Language                                 : Italian
  388. Default                                  : No
  389. Forced                                   : No
  390. Text #17
  391. ID                                       : 25
  392. Format                                   : UTF-8
  393. Codec ID                                 : S_TEXT/UTF8
  394. Codec ID/Info                            : UTF-8 Plain Text
  395. Duration                                 : 1 h 44 min
  396. Bit rate                                 : 72 b/s
  397. Count of elements                        : 1597
  398. Stream size                              : 55.3 KiB (0%)
  399. Title                                    : bahasa Malaysia (Malaysia)
  400. Language                                 : Malay
  401. Default                                  : No
  402. Forced                                   : No
  403. Text #18
  404. ID                                       : 26
  405. Format                                   : UTF-8
  406. Codec ID                                 : S_TEXT/UTF8
  407. Codec ID/Info                            : UTF-8 Plain Text
  408. Duration                                 : 1 h 44 min
  409. Bit rate                                 : 59 b/s
  410. Count of elements                        : 1214
  411. Stream size                              : 45.8 KiB (0%)
  412. Title                                    : Nederlands (Nederland)
  413. Language                                 : Dutch
  414. Default                                  : No
  415. Forced                                   : No
  416. Text #19
  417. ID                                       : 27
  418. Format                                   : UTF-8
  419. Codec ID                                 : S_TEXT/UTF8
  420. Codec ID/Info                            : UTF-8 Plain Text
  421. Duration                                 : 1 h 38 min
  422. Bit rate                                 : 69 b/s
  423. Count of elements                        : 1597
  424. Stream size                              : 50.4 KiB (0%)
  425. Title                                    : polski (Polska)
  426. Language                                 : Polish
  427. Default                                  : No
  428. Forced                                   : No
  429. Text #20
  430. ID                                       : 28
  431. Format                                   : UTF-8
  432. Codec ID                                 : S_TEXT/UTF8
  433. Codec ID/Info                            : UTF-8 Plain Text
  434. Duration                                 : 1 h 44 min
  435. Bit rate                                 : 60 b/s
  436. Count of elements                        : 1654
  437. Stream size                              : 46.2 KiB (0%)
  438. Title                                    : português (Brasil)
  439. Language                                 : Portuguese
  440. Default                                  : No
  441. Forced                                   : No
  442. Text #21
  443. ID                                       : 29
  444. Format                                   : UTF-8
  445. Codec ID                                 : S_TEXT/UTF8
  446. Codec ID/Info                            : UTF-8 Plain Text
  447. Duration                                 : 1 h 45 min
  448. Bit rate                                 : 70 b/s
  449. Count of elements                        : 1472
  450. Stream size                              : 54.5 KiB (0%)
  451. Title                                    : português (Portugal)
  452. Language                                 : Portuguese
  453. Default                                  : No
  454. Forced                                   : No
  455. Text #22
  456. ID                                       : 30
  457. Format                                   : UTF-8
  458. Codec ID                                 : S_TEXT/UTF8
  459. Codec ID/Info                            : UTF-8 Plain Text
  460. Duration                                 : 1 h 38 min
  461. Bit rate                                 : 73 b/s
  462. Count of elements                        : 1548
  463. Stream size                              : 52.8 KiB (0%)
  464. Title                                    : roman? (Romania)
  465. Language                                 : Romanian
  466. Default                                  : No
  467. Forced                                   : No
  468. Text #23
  469. ID                                       : 31
  470. Format                                   : UTF-8
  471. Codec ID                                 : S_TEXT/UTF8
  472. Codec ID/Info                            : UTF-8 Plain Text
  473. Duration                                 : 1 h 38 min
  474. Bit rate                                 : 122 b/s
  475. Count of elements                        : 1589
  476. Stream size                              : 88.3 KiB (0%)
  477. Title                                    : русский (Россия)
  478. Language                                 : Russian
  479. Default                                  : No
  480. Forced                                   : No
  481. Text #24
  482. ID                                       : 32
  483. Format                                   : UTF-8
  484. Codec ID                                 : S_TEXT/UTF8
  485. Codec ID/Info                            : UTF-8 Plain Text
  486. Duration                                 : 1 h 44 min
  487. Bit rate                                 : 70 b/s
  488. Count of elements                        : 1273
  489. Stream size                              : 54.3 KiB (0%)
  490. Title                                    : svenska (Sverige)
  491. Language                                 : Swedish
  492. Default                                  : No
  493. Forced                                   : No
  494. Text #25
  495. ID                                       : 33
  496. Format                                   : UTF-8
  497. Codec ID                                 : S_TEXT/UTF8
  498. Codec ID/Info                            : UTF-8 Plain Text
  499. Duration                                 : 1 h 44 min
  500. Bit rate                                 : 146 b/s
  501. Count of elements                        : 1598
  502. Stream size                              : 113 KiB (0%)
  503. Title                                    : ??? (???)
  504. Language                                 : Thai
  505. Default                                  : No
  506. Forced                                   : No
  507. Text #26
  508. ID                                       : 34
  509. Format                                   : UTF-8
  510. Codec ID                                 : S_TEXT/UTF8
  511. Codec ID/Info                            : UTF-8 Plain Text
  512. Duration                                 : 1 h 38 min
  513. Bit rate                                 : 76 b/s
  514. Count of elements                        : 1598
  515. Stream size                              : 55.4 KiB (0%)
  516. Title                                    : Türk?e (Türkiye)
  517. Language                                 : Turkish
  518. Default                                  : No
  519. Forced                                   : No
  520. Text #27
  521. ID                                       : 35
  522. Format                                   : UTF-8
  523. Codec ID                                 : S_TEXT/UTF8
  524. Codec ID/Info                            : UTF-8 Plain Text
  525. Duration                                 : 1 h 44 min
  526. Bit rate                                 : 92 b/s
  527. Count of elements                        : 1606
  528. Stream size                              : 71.3 KiB (0%)
  529. Title                                    : Ti?ng Vi?t (Vi?t Nam)
  530. Language                                 : Vietnamese
  531. Default                                  : No
  532. Forced                                   : No
复制代码

















保举请利用qBittorrent,utorrent,transmission等标准BT软件下载!以获得最快速度。奉求保种!





回复

使用道具 举报

懒得打字嘛,点击右侧快捷回复 【右侧内容,后台自定义】
您需要登录后才可以回帖 登录 | 立即加入

本版积分规则

Archiver|小黑屋| 蓝光电影网 |网站地图

Copyright © 2021 Comsenz Inc. Powered by 蓝光电影网

蓝光电影网

本站内容由用户自主分享和转载自互联网,转载目的在于传递更多信息,并不代表本网赞同其观点和对其真实性负责。

如有侵权、违反国家法律政策行为,请联系我们,我们会第一时间及时清除和处理!

举报反馈邮箱:[email protected]

快速回复 返回顶部 返回列表