找回密码

蓝光电影网

查看: 83|回复: 0

[剧情] 四十岁的老处男[简繁英字幕].The.40-Year-Old.Virgin.2005.1080p.AMZN.WEB-DL.H264.DDP5.1-TAGWEB 15.16GB

[复制链接]
蓝光币
8
发表于 2022-7-31 01:59:14 | 显示全部楼层 |阅读模式


◎标  题 四十岁的老处男
◎译  名 汉子四十戆居居(港) / 40处男(台) / 光棍四十一枝花
◎片  名 The 40 Year-Old Virgin
◎年  代 2005
◎产  地 美国
◎类  别 笑剧 / 恋爱
◎语  言 英语 / 西班牙语
◎上映日期 2005-08-19(美国)
◎IMDb评分 7.1/10 (417620人评价)
◎IMDb链接 https://www.imdb.com/title/tt0405422/
◎豆瓣评分 6.7/10 (21234人评价)
◎豆瓣链接 https://movie.douban.com/subject/1419935/
◎片  长 116分钟
◎导  演 贾德·阿帕图 Judd Apatow
◎编  剧 贾德·阿帕图 Judd Apatow
       史蒂夫·卡瑞尔 Steve Carell
◎演  员 史蒂夫·卡瑞尔 Steve Carell
       凯瑟琳·基纳 Catherine Keener
       保罗·路德 Paul Rudd
       罗曼尼·马尔可 Romany Malco
       塞斯·罗根 Seth Rogen
       凯特·戴琳斯 Kat Dennings
       伊丽莎白·班克斯 Elizabeth Banks
       乔纳·希尔 Jonah Hill
       敏迪·卡灵 Mindy Kaling
       斯托米·丹尼尔斯 Stormy Daniels
       切尔西史姑娘 Chelsea Smith
       马里卡·多米泽克 Marika Dominczyk
       Jamie Elle Mann Jamie Elle Mann
       Marisa Guterman Marisa Guterman
       曾莞婷 Wan-ting Tseng
       莱斯利·曼恩 Leslie Mann
       凯文·哈特 Kevin Hart
       简·林奇 Jane Lynch
       Hilary Shepard Hilary Shepard
       Clayton Townsend Clayton Townsend
       Allison Jones Allison Jones
       玛拉·加林 Marla Garlin
       K·C·福克斯 K.C. Fox
       汤姆·雷塔 Tom Reta
       Thomas Real Thomas Real
       金·桑坦托尼奥 Kim Santantonio
       Michele Ferrone Michele Ferrone
◎标  签 笑剧 / 美国 / 恋爱 / 搞笑 / 2005 / 性 / 性笑剧 / 剧情
◎简  介
  安迪(史蒂夫•卡瑞尔 Steve Carell 饰)40岁了,有着高薪厚职的他过着安静的日子。但是,当他有一次和他的狐朋狗党聊天时无意中流露了自己还是处男的时辰,麻烦来了。他的朋友们最急于的是若何先容一个女孩给安迪好让他尽快摆脱处男身。                                    
                                虽然安迪自己也焦急,但有些时辰就是越急越乱。朋友们放置安迪去酒吧结识女孩,无法安迪不能像其他人一样带着结识的女孩去兜风,由于他还不会驾驶。每次约会都笑料百出,安迪洋相尽出。                                    
                                安迪遇上了带着三个孩子的单亲妈妈翠西(凯瑟琳•基纳 Catherine Keener 饰),两人很快堕入爱河,安迪此次能否摆脱处男身?
  1. ##### MediaInfo ######
  2. General
  3. Unique ID                                : 173600150142936123168915690047470106375 (0x829A2C3969837A2BC9A33E55CC50F707)
  4. Complete name                            : The.40-Year-Old.Virgin.2005.1080p.AMZN.WEB-DL.H264.DDP5.1-TAGWEB.mkv
  5. Format                                   : Matroska
  6. Format version                           : Version 4
  7. File size                                : 15.2 GiB
  8. Duration                                 : 1 h 56 min
  9. Overall bit rate                         : 18.7 Mb/s
  10. Encoded date                             : UTC 2022-07-15 22:28:20
  11. Writing application                      : mkvmerge v67.0.0 ('Under Stars') 64-bit
  12. Writing library                          : libebml v1.4.2 + libmatroska v1.6.4
  13. Video
  14. ID                                       : 1
  15. Format                                   : AVC
  16. Format/Info                              : Advanced Video Codec
  17. Format profile                           : [email protected]
  18. Format settings                          : CABAC / 4 Ref Frames
  19. Format settings, CABAC                   : Yes
  20. Format settings, Reference frames        : 4 frames
  21. Codec ID                                 : V_MPEG4/ISO/AVC
  22. Duration                                 : 1 h 56 min
  23. Bit rate                                 : 14.6 Mb/s
  24. Width                                    : 1 920 pixels
  25. Height                                   : 1 040 pixels
  26. Display aspect ratio                     : 1.85:1
  27. Frame rate mode                          : Constant
  28. Frame rate                               : 23.976 (24000/1001/53875) FPS
  29. Color space                              : YUV
  30. Chroma subsampling                       : 4:2:0
  31. Bit depth                                : 8 bits
  32. Scan type                                : Progressive
  33. Bits/(Pixel*Frame)                       : 0.305
  34. Stream size                              : 11.9 GiB (78%)
  35. Language                                 : English
  36. Default                                  : Yes
  37. Forced                                   : No
  38. Color range                              : Limited
  39. Color primaries                          : BT.709
  40. Transfer characteristics                 : BT.709
  41. Matrix coefficients                      : BT.709
  42. Audio #1
  43. ID                                       : 2
  44. Format                                   : E-AC-3
  45. Format/Info                              : Enhanced AC-3
  46. Commercial name                          : Dolby Digital Plus
  47. Codec ID                                 : A_EAC3
  48. Duration                                 : 1 h 56 min
  49. Bit rate mode                            : Constant
  50. Bit rate                                 : 640 kb/s
  51. Channel(s)                               : 6 channels
  52. Channel layout                           : L R C LFE Ls Rs
  53. Sampling rate                            : 48.0 kHz
  54. Frame rate                               : 31.250 FPS (1536 SPF)
  55. Compression mode                         : Lossy
  56. Stream size                              : 531 MiB (3%)
  57. Title                                    : English
  58. Language                                 : English
  59. Service kind                             : Complete Main
  60. Default                                  : Yes
  61. Forced                                   : No
  62. Audio #2
  63. ID                                       : 3
  64. Format                                   : E-AC-3
  65. Format/Info                              : Enhanced AC-3
  66. Commercial name                          : Dolby Digital Plus
  67. Codec ID                                 : A_EAC3
  68. Duration                                 : 1 h 56 min
  69. Bit rate mode                            : Constant
  70. Bit rate                                 : 640 kb/s
  71. Channel(s)                               : 6 channels
  72. Channel layout                           : L R C LFE Ls Rs
  73. Sampling rate                            : 48.0 kHz
  74. Frame rate                               : 31.250 FPS (1536 SPF)
  75. Compression mode                         : Lossy
  76. Stream size                              : 531 MiB (3%)
  77. Title                                    : espa?ol
  78. Language                                 : Spanish
  79. Service kind                             : Complete Main
  80. Default                                  : No
  81. Forced                                   : No
  82. Audio #3
  83. ID                                       : 4
  84. Format                                   : E-AC-3
  85. Format/Info                              : Enhanced AC-3
  86. Commercial name                          : Dolby Digital Plus
  87. Codec ID                                 : A_EAC3
  88. Duration                                 : 1 h 56 min
  89. Bit rate mode                            : Constant
  90. Bit rate                                 : 640 kb/s
  91. Channel(s)                               : 6 channels
  92. Channel layout                           : L R C LFE Ls Rs
  93. Sampling rate                            : 48.0 kHz
  94. Frame rate                               : 31.250 FPS (1536 SPF)
  95. Compression mode                         : Lossy
  96. Stream size                              : 531 MiB (3%)
  97. Title                                    : Deutsch
  98. Language                                 : German
  99. Service kind                             : Complete Main
  100. Default                                  : No
  101. Forced                                   : No
  102. Audio #4
  103. ID                                       : 5
  104. Format                                   : E-AC-3
  105. Format/Info                              : Enhanced AC-3
  106. Commercial name                          : Dolby Digital Plus
  107. Codec ID                                 : A_EAC3
  108. Duration                                 : 1 h 56 min
  109. Bit rate mode                            : Constant
  110. Bit rate                                 : 224 kb/s
  111. Channel(s)                               : 2 channels
  112. Channel layout                           : L R
  113. Sampling rate                            : 48.0 kHz
  114. Frame rate                               : 31.250 FPS (1536 SPF)
  115. Compression mode                         : Lossy
  116. Stream size                              : 186 MiB (1%)
  117. Title                                    : fran?ais
  118. Language                                 : French
  119. Service kind                             : Complete Main
  120. Default                                  : No
  121. Forced                                   : No
  122. Audio #5
  123. ID                                       : 6
  124. Format                                   : E-AC-3
  125. Format/Info                              : Enhanced AC-3
  126. Commercial name                          : Dolby Digital Plus
  127. Codec ID                                 : A_EAC3
  128. Duration                                 : 1 h 56 min
  129. Bit rate mode                            : Constant
  130. Bit rate                                 : 640 kb/s
  131. Channel(s)                               : 6 channels
  132. Channel layout                           : L R C LFE Ls Rs
  133. Sampling rate                            : 48.0 kHz
  134. Frame rate                               : 31.250 FPS (1536 SPF)
  135. Compression mode                         : Lossy
  136. Stream size                              : 531 MiB (3%)
  137. Title                                    : italiano
  138. Language                                 : Italian
  139. Service kind                             : Complete Main
  140. Default                                  : No
  141. Forced                                   : No
  142. Audio #6
  143. ID                                       : 7
  144. Format                                   : E-AC-3
  145. Format/Info                              : Enhanced AC-3
  146. Commercial name                          : Dolby Digital Plus
  147. Codec ID                                 : A_EAC3
  148. Duration                                 : 1 h 56 min
  149. Bit rate mode                            : Constant
  150. Bit rate                                 : 640 kb/s
  151. Channel(s)                               : 6 channels
  152. Channel layout                           : L R C LFE Ls Rs
  153. Sampling rate                            : 48.0 kHz
  154. Frame rate                               : 31.250 FPS (1536 SPF)
  155. Compression mode                         : Lossy
  156. Stream size                              : 531 MiB (3%)
  157. Title                                    : polski
  158. Language                                 : Polish
  159. Service kind                             : Complete Main
  160. Default                                  : No
  161. Forced                                   : No
  162. Audio #7
  163. ID                                       : 8
  164. Format                                   : E-AC-3
  165. Format/Info                              : Enhanced AC-3
  166. Commercial name                          : Dolby Digital Plus
  167. Codec ID                                 : A_EAC3
  168. Duration                                 : 1 h 56 min
  169. Bit rate mode                            : Constant
  170. Bit rate                                 : 640 kb/s
  171. Channel(s)                               : 6 channels
  172. Channel layout                           : L R C LFE Ls Rs
  173. Sampling rate                            : 48.0 kHz
  174. Frame rate                               : 31.250 FPS (1536 SPF)
  175. Compression mode                         : Lossy
  176. Stream size                              : 531 MiB (3%)
  177. Title                                    : português
  178. Language                                 : Portuguese
  179. Service kind                             : Complete Main
  180. Default                                  : No
  181. Forced                                   : No
  182. Text #1
  183. ID                                       : 9
  184. Format                                   : UTF-8
  185. Codec ID                                 : S_TEXT/UTF8
  186. Codec ID/Info                            : UTF-8 Plain Text
  187. Duration                                 : 1 h 52 min
  188. Bit rate                                 : 64 b/s
  189. Count of elements                        : 2364
  190. Stream size                              : 53.6 KiB (0%)
  191. Title                                    : 中文 (简体)
  192. Language                                 : Chinese
  193. Default                                  : Yes
  194. Forced                                   : No
  195. Text #2
  196. ID                                       : 10
  197. Format                                   : UTF-8
  198. Codec ID                                 : S_TEXT/UTF8
  199. Codec ID/Info                            : UTF-8 Plain Text
  200. Duration                                 : 1 h 49 min
  201. Bit rate                                 : 77 b/s
  202. Count of elements                        : 2065
  203. Stream size                              : 62.2 KiB (0%)
  204. Title                                    : 中文 (繁體)
  205. Language                                 : Chinese
  206. Default                                  : No
  207. Forced                                   : No
  208. Text #3
  209. ID                                       : 11
  210. Format                                   : UTF-8
  211. Codec ID                                 : S_TEXT/UTF8
  212. Codec ID/Info                            : UTF-8 Plain Text
  213. Duration                                 : 1 h 53 min
  214. Bit rate                                 : 92 b/s
  215. Count of elements                        : 2357
  216. Stream size                              : 76.6 KiB (0%)
  217. Title                                    : English (United States)
  218. Language                                 : English
  219. Default                                  : No
  220. Forced                                   : No
  221. Text #4
  222. ID                                       : 12
  223. Format                                   : UTF-8
  224. Codec ID                                 : S_TEXT/UTF8
  225. Codec ID/Info                            : UTF-8 Plain Text
  226. Duration                                 : 1 h 51 min
  227. Bit rate                                 : 139 b/s
  228. Count of elements                        : 2182
  229. Stream size                              : 114 KiB (0%)
  230. Title                                    : ??????? (??????? ??????? ????????)
  231. Language                                 : Arabic
  232. Default                                  : No
  233. Forced                                   : No
  234. Text #5
  235. ID                                       : 13
  236. Format                                   : UTF-8
  237. Codec ID                                 : S_TEXT/UTF8
  238. Codec ID/Info                            : UTF-8 Plain Text
  239. Duration                                 : 1 h 54 min
  240. Bit rate                                 : 68 b/s
  241. Count of elements                        : 2178
  242. Stream size                              : 57.3 KiB (0%)
  243. Title                                    : ?e?tina (?esko)
  244. Language                                 : Czech
  245. Default                                  : No
  246. Forced                                   : No
  247. Text #6
  248. ID                                       : 14
  249. Format                                   : UTF-8
  250. Codec ID                                 : S_TEXT/UTF8
  251. Codec ID/Info                            : UTF-8 Plain Text
  252. Duration                                 : 1 h 54 min
  253. Bit rate                                 : 75 b/s
  254. Count of elements                        : 2165
  255. Stream size                              : 63.2 KiB (0%)
  256. Title                                    : dansk (Danmark)
  257. Language                                 : Danish
  258. Default                                  : No
  259. Forced                                   : No
  260. Text #7
  261. ID                                       : 15
  262. Format                                   : UTF-8
  263. Codec ID                                 : S_TEXT/UTF8
  264. Codec ID/Info                            : UTF-8 Plain Text
  265. Duration                                 : 1 h 51 min
  266. Bit rate                                 : 94 b/s
  267. Count of elements                        : 2177
  268. Stream size                              : 76.9 KiB (0%)
  269. Title                                    : Deutsch (Deutschland)
  270. Language                                 : German
  271. Default                                  : No
  272. Forced                                   : No
  273. Text #8
  274. ID                                       : 16
  275. Format                                   : UTF-8
  276. Codec ID                                 : S_TEXT/UTF8
  277. Codec ID/Info                            : UTF-8 Plain Text
  278. Duration                                 : 1 h 51 min
  279. Bit rate                                 : 84 b/s
  280. Count of elements                        : 2178
  281. Stream size                              : 69.3 KiB (0%)
  282. Title                                    : espa?ol (Latinoamérica)
  283. Language                                 : Spanish
  284. Default                                  : No
  285. Forced                                   : No
  286. Text #9
  287. ID                                       : 17
  288. Format                                   : UTF-8
  289. Codec ID                                 : S_TEXT/UTF8
  290. Codec ID/Info                            : UTF-8 Plain Text
  291. Duration                                 : 1 h 52 min
  292. Bit rate                                 : 82 b/s
  293. Count of elements                        : 2077
  294. Stream size                              : 68.0 KiB (0%)
  295. Title                                    : espa?ol (Espa?a)
  296. Language                                 : Spanish
  297. Default                                  : No
  298. Forced                                   : No
  299. Text #10
  300. ID                                       : 18
  301. Format                                   : UTF-8
  302. Codec ID                                 : S_TEXT/UTF8
  303. Codec ID/Info                            : UTF-8 Plain Text
  304. Duration                                 : 1 h 50 min
  305. Bit rate                                 : 63 b/s
  306. Count of elements                        : 1609
  307. Stream size                              : 51.5 KiB (0%)
  308. Title                                    : suomi (Suomi)
  309. Language                                 : Finnish
  310. Default                                  : No
  311. Forced                                   : No
  312. Text #11
  313. ID                                       : 19
  314. Format                                   : UTF-8
  315. Codec ID                                 : S_TEXT/UTF8
  316. Codec ID/Info                            : UTF-8 Plain Text
  317. Duration                                 : 1 h 51 min
  318. Bit rate                                 : 91 b/s
  319. Count of elements                        : 1966
  320. Stream size                              : 74.6 KiB (0%)
  321. Title                                    : Filipino (Pilipinas)
  322. Language                                 : fil
  323. Default                                  : No
  324. Forced                                   : No
  325. Text #12
  326. ID                                       : 20
  327. Format                                   : UTF-8
  328. Codec ID                                 : S_TEXT/UTF8
  329. Codec ID/Info                            : UTF-8 Plain Text
  330. Duration                                 : 1 h 54 min
  331. Bit rate                                 : 82 b/s
  332. Count of elements                        : 2177
  333. Stream size                              : 68.6 KiB (0%)
  334. Title                                    : fran?ais (France)
  335. Language                                 : French
  336. Default                                  : No
  337. Forced                                   : No
  338. Text #13
  339. ID                                       : 21
  340. Format                                   : UTF-8
  341. Codec ID                                 : S_TEXT/UTF8
  342. Codec ID/Info                            : UTF-8 Plain Text
  343. Duration                                 : 1 h 51 min
  344. Bit rate                                 : 125 b/s
  345. Count of elements                        : 2149
  346. Stream size                              : 103 KiB (0%)
  347. Title                                    : ????? (?????)
  348. Language                                 : Hebrew
  349. Default                                  : No
  350. Forced                                   : No
  351. Text #14
  352. ID                                       : 22
  353. Format                                   : UTF-8
  354. Codec ID                                 : S_TEXT/UTF8
  355. Codec ID/Info                            : UTF-8 Plain Text
  356. Duration                                 : 1 h 52 min
  357. Bit rate                                 : 203 b/s
  358. Count of elements                        : 2183
  359. Stream size                              : 168 KiB (0%)
  360. Title                                    : ?????? (????)
  361. Language                                 : Hindi
  362. Default                                  : No
  363. Forced                                   : No
  364. Text #15
  365. ID                                       : 23
  366. Format                                   : UTF-8
  367. Codec ID                                 : S_TEXT/UTF8
  368. Codec ID/Info                            : UTF-8 Plain Text
  369. Duration                                 : 1 h 53 min
  370. Bit rate                                 : 81 b/s
  371. Count of elements                        : 2112
  372. Stream size                              : 68.4 KiB (0%)
  373. Title                                    : magyar (Magyarország)
  374. Language                                 : Hungarian
  375. Default                                  : No
  376. Forced                                   : No
  377. Text #16
  378. ID                                       : 24
  379. Format                                   : UTF-8
  380. Codec ID                                 : S_TEXT/UTF8
  381. Codec ID/Info                            : UTF-8 Plain Text
  382. Duration                                 : 1 h 53 min
  383. Bit rate                                 : 80 b/s
  384. Count of elements                        : 2159
  385. Stream size                              : 67.6 KiB (0%)
  386. Title                                    : bahasa Indonesia (Indonesia)
  387. Language                                 : Indonesian
  388. Default                                  : No
  389. Forced                                   : No
  390. Text #17
  391. ID                                       : 25
  392. Format                                   : UTF-8
  393. Codec ID                                 : S_TEXT/UTF8
  394. Codec ID/Info                            : UTF-8 Plain Text
  395. Duration                                 : 1 h 51 min
  396. Bit rate                                 : 84 b/s
  397. Count of elements                        : 2176
  398. Stream size                              : 69.0 KiB (0%)
  399. Title                                    : italiano (Italia)
  400. Language                                 : Italian
  401. Default                                  : No
  402. Forced                                   : No
  403. Text #18
  404. ID                                       : 26
  405. Format                                   : UTF-8
  406. Codec ID                                 : S_TEXT/UTF8
  407. Codec ID/Info                            : UTF-8 Plain Text
  408. Duration                                 : 1 h 50 min
  409. Bit rate                                 : 69 b/s
  410. Count of elements                        : 2009
  411. Stream size                              : 56.7 KiB (0%)
  412. Title                                    : 日本語 (日本)
  413. Language                                 : Japanese
  414. Default                                  : No
  415. Forced                                   : No
  416. Text #19
  417. ID                                       : 27
  418. Format                                   : UTF-8
  419. Codec ID                                 : S_TEXT/UTF8
  420. Codec ID/Info                            : UTF-8 Plain Text
  421. Duration                                 : 1 h 55 min
  422. Bit rate                                 : 62 b/s
  423. Count of elements                        : 2180
  424. Stream size                              : 52.5 KiB (0%)
  425. Title                                    : ??? (????)
  426. Language                                 : Korean
  427. Default                                  : No
  428. Forced                                   : No
  429. Text #20
  430. ID                                       : 28
  431. Format                                   : UTF-8
  432. Codec ID                                 : S_TEXT/UTF8
  433. Codec ID/Info                            : UTF-8 Plain Text
  434. Duration                                 : 1 h 49 min
  435. Bit rate                                 : 86 b/s
  436. Count of elements                        : 2127
  437. Stream size                              : 69.1 KiB (0%)
  438. Title                                    : bahasa Malaysia (Malaysia)
  439. Language                                 : Malay
  440. Default                                  : No
  441. Forced                                   : No
  442. Text #21
  443. ID                                       : 29
  444. Format                                   : UTF-8
  445. Codec ID                                 : S_TEXT/UTF8
  446. Codec ID/Info                            : UTF-8 Plain Text
  447. Duration                                 : 1 h 51 min
  448. Bit rate                                 : 70 b/s
  449. Count of elements                        : 2171
  450. Stream size                              : 57.3 KiB (0%)
  451. Title                                    : norsk bokm?l (Norge)
  452. Language                                 : Norwegian Bokmal
  453. Default                                  : No
  454. Forced                                   : No
  455. Text #22
  456. ID                                       : 30
  457. Format                                   : UTF-8
  458. Codec ID                                 : S_TEXT/UTF8
  459. Codec ID/Info                            : UTF-8 Plain Text
  460. Duration                                 : 1 h 51 min
  461. Bit rate                                 : 72 b/s
  462. Count of elements                        : 2175
  463. Stream size                              : 59.5 KiB (0%)
  464. Title                                    : Nederlands (Nederland)
  465. Language                                 : Dutch
  466. Default                                  : No
  467. Forced                                   : No
  468. Text #23
  469. ID                                       : 31
  470. Format                                   : UTF-8
  471. Codec ID                                 : S_TEXT/UTF8
  472. Codec ID/Info                            : UTF-8 Plain Text
  473. Duration                                 : 1 h 51 min
  474. Bit rate                                 : 63 b/s
  475. Count of elements                        : 2177
  476. Stream size                              : 51.9 KiB (0%)
  477. Title                                    : polski (Polska)
  478. Language                                 : Polish
  479. Default                                  : No
  480. Forced                                   : No
  481. Text #24
  482. ID                                       : 32
  483. Format                                   : UTF-8
  484. Codec ID                                 : S_TEXT/UTF8
  485. Codec ID/Info                            : UTF-8 Plain Text
  486. Duration                                 : 1 h 55 min
  487. Bit rate                                 : 70 b/s
  488. Count of elements                        : 2180
  489. Stream size                              : 59.6 KiB (0%)
  490. Title                                    : português (Brasil)
  491. Language                                 : Portuguese
  492. Default                                  : No
  493. Forced                                   : No
  494. Text #25
  495. ID                                       : 33
  496. Format                                   : UTF-8
  497. Codec ID                                 : S_TEXT/UTF8
  498. Codec ID/Info                            : UTF-8 Plain Text
  499. Duration                                 : 1 h 52 min
  500. Bit rate                                 : 78 b/s
  501. Count of elements                        : 2173
  502. Stream size                              : 65.2 KiB (0%)
  503. Title                                    : português (Portugal)
  504. Language                                 : Portuguese
  505. Default                                  : No
  506. Forced                                   : No
  507. Text #26
  508. ID                                       : 34
  509. Format                                   : UTF-8
  510. Codec ID                                 : S_TEXT/UTF8
  511. Codec ID/Info                            : UTF-8 Plain Text
  512. Duration                                 : 1 h 55 min
  513. Bit rate                                 : 76 b/s
  514. Count of elements                        : 2057
  515. Stream size                              : 64.1 KiB (0%)
  516. Title                                    : roman? (Romania)
  517. Language                                 : Romanian
  518. Default                                  : No
  519. Forced                                   : No
  520. Text #27
  521. ID                                       : 35
  522. Format                                   : UTF-8
  523. Codec ID                                 : S_TEXT/UTF8
  524. Codec ID/Info                            : UTF-8 Plain Text
  525. Duration                                 : 1 h 50 min
  526. Bit rate                                 : 145 b/s
  527. Count of elements                        : 2142
  528. Stream size                              : 118 KiB (0%)
  529. Title                                    : русский (Россия)
  530. Language                                 : Russian
  531. Default                                  : No
  532. Forced                                   : No
  533. Text #28
  534. ID                                       : 36
  535. Format                                   : UTF-8
  536. Codec ID                                 : S_TEXT/UTF8
  537. Codec ID/Info                            : UTF-8 Plain Text
  538. Duration                                 : 1 h 51 min
  539. Bit rate                                 : 75 b/s
  540. Count of elements                        : 2173
  541. Stream size                              : 61.8 KiB (0%)
  542. Title                                    : svenska (Sverige)
  543. Language                                 : Swedish
  544. Default                                  : No
  545. Forced                                   : No
  546. Text #29
  547. ID                                       : 37
  548. Format                                   : UTF-8
  549. Codec ID                                 : S_TEXT/UTF8
  550. Codec ID/Info                            : UTF-8 Plain Text
  551. Duration                                 : 1 h 53 min
  552. Bit rate                                 : 299 b/s
  553. Count of elements                        : 2422
  554. Stream size                              : 249 KiB (0%)
  555. Title                                    : ????? (???????)
  556. Language                                 : Tamil
  557. Default                                  : No
  558. Forced                                   : No
  559. Text #30
  560. ID                                       : 38
  561. Format                                   : UTF-8
  562. Codec ID                                 : S_TEXT/UTF8
  563. Codec ID/Info                            : UTF-8 Plain Text
  564. Duration                                 : 1 h 53 min
  565. Bit rate                                 : 268 b/s
  566. Count of elements                        : 2366
  567. Stream size                              : 223 KiB (0%)
  568. Title                                    : ?????? (????????)
  569. Language                                 : Telugu
  570. Default                                  : No
  571. Forced                                   : No
  572. Text #31
  573. ID                                       : 39
  574. Format                                   : UTF-8
  575. Codec ID                                 : S_TEXT/UTF8
  576. Codec ID/Info                            : UTF-8 Plain Text
  577. Duration                                 : 1 h 53 min
  578. Bit rate                                 : 177 b/s
  579. Count of elements                        : 2177
  580. Stream size                              : 148 KiB (0%)
  581. Title                                    : ??? (???)
  582. Language                                 : Thai
  583. Default                                  : No
  584. Forced                                   : No
  585. Text #32
  586. ID                                       : 40
  587. Format                                   : UTF-8
  588. Codec ID                                 : S_TEXT/UTF8
  589. Codec ID/Info                            : UTF-8 Plain Text
  590. Duration                                 : 1 h 51 min
  591. Bit rate                                 : 81 b/s
  592. Count of elements                        : 2177
  593. Stream size                              : 66.6 KiB (0%)
  594. Title                                    : Türk?e (Türkiye)
  595. Language                                 : Turkish
  596. Default                                  : No
  597. Forced                                   : No
  598. Text #33
  599. ID                                       : 41
  600. Format                                   : UTF-8
  601. Codec ID                                 : S_TEXT/UTF8
  602. Codec ID/Info                            : UTF-8 Plain Text
  603. Duration                                 : 1 h 53 min
  604. Bit rate                                 : 115 b/s
  605. Count of elements                        : 2085
  606. Stream size                              : 96.5 KiB (0%)
  607. Title                                    : Ti?ng Vi?t (Vi?t Nam)
  608. Language                                 : Vietnamese
  609. Default                                  : No
  610. Forced                                   : No
  611. Menu
  612. 00:00:00.000                             : en:Studio Logos
  613. 00:00:25.000                             : en:Andy Starts His Day
  614. 00:02:56.000                             : en:Andy Arrives to Work
  615. 00:06:08.000                             : en:The Boys Invite Andy to Poker Night
  616. 00:07:22.000                             : en:Andy Talks with the Boys
  617. 00:12:42.000                             : en:Andy Feels Humiliated
  618. 00:14:55.000                             : en:Andy Makes a Run for It
  619. 00:15:59.000                             : en:Andy and David Have a Heart to Heart
  620. 00:18:07.000                             : en:Andy Sees Sex Everywhere
  621. 00:18:52.000                             : en:Andy Thinks about the Past
  622. 00:20:02.000                             : en:The Boys Go Out
  623. 00:21:33.000                             : en:Andy Meets Nicky
  624. 00:23:17.000                             : en:Nicky Drives Andy to Her Place
  625. 00:26:50.000                             : en:Jay Lectures Andy
  626. 00:28:09.000                             : en:Andy Meets Trish
  627. 00:30:51.000                             : en:The Boys Go Out for a Drink
  628. 00:33:00.000                             : en:Andy Becomes Self-Conscious
  629. 00:34:54.000                             : en:Andy Waxes His Chest
  630. 00:38:21.000                             : en:Cal Gives Andy Advice
  631. 00:42:09.000                             : en:Andy Calls Trish
  632. 00:43:21.000                             : en:David Brings Andy a Box
  633. 00:45:59.000                             : en:Andy Gets Ready for Bed
  634. 00:47:28.000                             : en:David Invites Andy to Lunch
  635. 00:48:00.000                             : en:The Boys Sign Up for Date-A-Palooza
  636. 00:51:07.000                             : en:Jill Confronts Andy
  637. 00:54:00.000                             : en:Jay Sets Andy Up
  638. 00:56:40.000                             : en:Andy Asks Trish on a Date
  639. 00:58:30.000                             : en:David and Cal Play Video Games
  640. 01:02:24.000                             : en:Andy and Trish Go on Their First Date
  641. 01:04:20.000                             : en:Andy Goes Back to Trish's
  642. 01:07:00.000                             : en:Andy Calls a Hotline
  643. 01:07:22.000                             : en:Paula Comes On to Andy
  644. 01:10:59.000                             : en:Andy Prepares to Tell Trish
  645. 01:14:49.000                             : en:Andy Meets Julia
  646. 01:17:46.000                             : en:Andy Gets a Promotion
  647. 01:20:48.000                             : en:Andy Bonds with Trish and Her Family
  648. 01:21:51.000                             : en:Trish Offers Her Help
  649. 01:23:44.000                             : en:Marla Lashes Out
  650. 01:25:13.000                             : en:Andy Takes Marla to a Class
  651. 01:28:23.000                             : en:Jay Annouces Jill's Pregancy
  652. 01:30:14.000                             : en:Andy and Trish Have an Argument
  653. 01:34:22.000                             : en:Andy Gets Drunk
  654. 01:38:28.000                             : en:Marla Talks to Trish about Andy
  655. 01:42:38.000                             : en:The Boys Give Andy Real Advice
  656. 01:43:39.000                             : en:Andy Tells Trish
  657. 01:48:39.000                             : en:Andy and Trish Commit to Each Other
  658. 01:52:34.000                             : en:End Credits
复制代码

















保举请利用qBittorrent,utorrent,transmission等标准BT软件下载!以获得最快速度。奉求保种!





回复

使用道具 举报

懒得打字嘛,点击右侧快捷回复 【右侧内容,后台自定义】
您需要登录后才可以回帖 登录 | 立即加入

本版积分规则

Archiver|小黑屋| 蓝光电影网 |网站地图

Copyright © 2021 Comsenz Inc. Powered by 蓝光电影网

蓝光电影网

本站内容由用户自主分享和转载自互联网,转载目的在于传递更多信息,并不代表本网赞同其观点和对其真实性负责。

如有侵权、违反国家法律政策行为,请联系我们,我们会第一时间及时清除和处理!

举报反馈邮箱:[email protected]

快速回复 返回顶部 返回列表