找回密码

蓝光电影网

查看: 199|回复: 4

[2160p] 侏罗纪世界3[中英特效字幕].Jurassic.World.Dominion.2022.V3.HDR.WEB-DL.2160p.HEVC.Atmos.DDP5.1-BBQDDQ 27.23GB

[复制链接]
蓝光币
7
发表于 2022-7-31 02:00:21 | 显示全部楼层 |阅读模式


◎标  题 侏罗纪天下3
◎译  名 侏罗纪天下3:统治 / 侏罗纪天下:统治霸权(港) / 侏罗纪天下:统霸全国(台) / 侏罗纪公园6 / Jurassic Park 6
◎片  名 Jurassic World: Dominion
◎年  代 2022
◎产  地 美国
◎类  别 行动 / 科幻 / 冒险
◎语  言 英语
◎上映日期 2022-06-10(美国/中国大陆) / 2022-06-01(韩国)
◎IMDb评分 6.4/10 (2331人评价)
◎IMDb链接 https://www.imdb.com/title/tt8041270/
◎豆瓣链接 https://movie.douban.com/subject/26873582/
◎片  长 146分钟
◎导  演 科林·特莱沃若 Colin Trevorrow
◎编  剧 科林·特莱沃若 Colin Trevorrow
       艾米丽·卡迈克尔 Emily Carmichael
       德里克·康纳利 Derek Connolly
       迈克尔·克莱顿 Michael Crichton
◎演  员 克里斯·帕拉特 Chris Pratt
       布莱丝·达拉斯·霍华德 Bryce Dallas Howard
       山姆·尼尔 Sam Neill
       劳拉·邓恩 Laura Dern
       杰夫·高布伦 Jeff Goldblum
       伊莎贝拉·瑟蒙 Isabella Sermon
       马莫多·阿西 Mamoudou Athie
       丹妮艾拉·皮内达 Daniella Pineda
       迪辰·拉克曼 Dichen Lachman
       黄荣亮 B.D. Wong
       克里斯托弗·普拉哈 Kristoffer Polaha
       奥玛·希 Omar Sy
       贾斯蒂斯·史姑娘 Justice Smith
       坎贝尔·斯科特 Campbell Scott
       德汪达·怀斯 DeWanda Wise
       斯科特·黑兹 Scott Haze
       Freya Parker Freya Parker
       瓦拉达·塞图 Varada Sethu
       格利尼斯·戴维斯 Glynis Davies
       埃尔娃·崔尔 Elva Trill
       柯基·法尔考 Cokey Falkow
       伯纳多·桑托斯 Bernardo Santos
       迪米特里“维加斯”蒂瓦约 Dimitri 'Vegas' Thivaios
       小恩佐·斯奎利诺 Enzo Squillino Jr.
       特蕾莎·森登·加西亚 Teresa Cendon-Garcia
       杰克·约翰逊 Jake M. Johnson
       乔·阿泽帕迪 Joe Azzopardi
       帕特里克·克劳利 Patrick Crowley
       弗兰克·马歇尔 Frank Marshall
       史蒂文·斯皮尔伯格 Steven Spielberg
       科林·特莱沃若 Colin Trevorrow
       温斯顿·阿佐帕迪 Winston Azzopardi
       迈克·吉亚奇诺 Michael Giacchino
       约翰·施瓦兹曼 John Schwartzman
       马克·桑格 Mark Sanger
       妮娜·古德 Nina Gold
       凯文·詹金斯 Kevin Jenkins
       理查德·罗伯茨 Richard Roberts
◎简  介
  影片为《侏罗纪天下》系列的结束篇,故事的开篇设定在纳布拉尔岛被摧毁的四年后。现在,恐龙在天下各地与人类配合生活、配合捕猎。这一懦弱的平衡将重塑未来,并终极决议人类能否与史上最可怕生物同享这颗星球,并继续站在食品链的顶端。
  1. ##### MediaInfo ######
  2. General
  3. ID                                       : 1 (0x1)
  4. Complete name                            : 侏罗纪天下3.Jurassic.World.Dominion.2022.HDR.WEB-DL.2160p.HEVC.Atmos.DDP5.1-BBQDDQ.m2ts
  5. Format                                   : BDAV
  6. Format/Info                              : Blu-ray Video
  7. File size                                : 27.2 GiB
  8. Duration                                 : 2 h 26 min
  9. Overall bit rate mode                    : Variable
  10. Overall bit rate                         : 26.5 Mb/s
  11. Maximum Overall bit rate                 : 35.5 Mb/s
  12. Video
  13. ID                                       : 4117 (0x1015)
  14. Menu ID                                  : 1 (0x1)
  15. Format                                   : HEVC
  16. Format/Info                              : High Efficiency Video Coding
  17. Format profile                           : Main [email protected]@High
  18. HDR format                               : Dolby Vision, Version 1.0, dvhe.08.06, BL+RPU / SMPTE ST 2086, HDR10 compatible
  19. Codec ID                                 : 36
  20. Duration                                 : 2 h 26 min
  21. Bit rate                                 : 24.7 Mb/s
  22. Width                                    : 3 840 pixels
  23. Height                                   : 2 160 pixels
  24. Display aspect ratio                     : 16:9
  25. Frame rate                               : 23.976 (24000/1001/53875) FPS
  26. Color space                              : YUV
  27. Chroma subsampling                       : 4:2:0 (Type 2)
  28. Bit depth                                : 10 bits
  29. Bits/(Pixel*Frame)                       : 0.124
  30. Stream size                              : 25.3 GiB (93%)
  31. Language                                 : English
  32. Color range                              : Limited
  33. Color primaries                          : BT.2020
  34. Transfer characteristics                 : PQ
  35. Matrix coefficients                      : BT.2020 non-constant
  36. Mastering display color primaries        : BT.2020
  37. Mastering display luminance              : min: 0.0050 cd/m2, max: 1000 cd/m2
  38. Maximum Content Light Level              : 750 cd/m2
  39. Maximum Frame-Average Light Level        : 141 cd/m2
  40. Audio
  41. ID                                       : 4352 (0x1100)
  42. Menu ID                                  : 1 (0x1)
  43. Format                                   : E-AC-3 JOC
  44. Format/Info                              : Enhanced AC-3 with Joint Object Coding
  45. Commercial name                          : Dolby Digital Plus with Dolby Atmos
  46. Codec ID                                 : 132
  47. Duration                                 : 2 h 26 min
  48. Bit rate mode                            : Constant
  49. Bit rate                                 : 768 kb/s
  50. Channel(s)                               : 6 channels
  51. Channel layout                           : L R C LFE Ls Rs
  52. Sampling rate                            : 48.0 kHz
  53. Frame rate                               : 31.250 FPS (1536 SPF)
  54. Compression mode                         : Lossy
  55. Stream size                              : 807 MiB (3%)
  56. Language                                 : English
  57. Service kind                             : Complete Main
  58. Complexity index                         : 16
  59. Number of dynamic objects                : 15
  60. Bed channel count                        : 1 channel
  61. Bed channel configuration                : LFE
  62. Text #1
  63. ID                                       : 4768 (0x12A0)
  64. Menu ID                                  : 1 (0x1)
  65. Format                                   : PGS
  66. Codec ID                                 : 144
  67. Delay relative to video                  : 19 s 644 ms
  68. Language                                 : Chinese
  69. Text #2
  70. ID                                       : 4769 (0x12A1)
  71. Menu ID                                  : 1 (0x1)
  72. Format                                   : PGS
  73. Codec ID                                 : 144
  74. Delay relative to video                  : 19 s 644 ms
  75. Language                                 : Chinese
  76. Text #3
  77. ID                                       : 4770 (0x12A2)
  78. Menu ID                                  : 1 (0x1)
  79. Format                                   : PGS
  80. Codec ID                                 : 144
  81. Delay relative to video                  : 19 s 644 ms
  82. Language                                 : Chinese
  83. Text #4
  84. ID                                       : 4771 (0x12A3)
  85. Menu ID                                  : 1 (0x1)
  86. Format                                   : PGS
  87. Codec ID                                 : 144
  88. Delay relative to video                  : 19 s 644 ms
  89. Language                                 : Chinese
  90. Text #5
  91. ID                                       : 4772 (0x12A4)
  92. Menu ID                                  : 1 (0x1)
  93. Format                                   : PGS
  94. Codec ID                                 : 144
  95. Delay relative to video                  : 12 s 137 ms
  96. Language                                 : English
  97. Text #6
  98. ID                                       : 4773 (0x12A5)
  99. Menu ID                                  : 1 (0x1)
  100. Format                                   : PGS
  101. Codec ID                                 : 144
  102. Duration                                 : 2 h 26 min
  103. Delay relative to video                  : 6 s 798 ms
  104. Language                                 : English
复制代码

















保举请利用qBittorrent,utorrent,transmission等标准BT软件下载!以获得最快速度。奉求保种!





回复

使用道具 举报

蓝光币
47
发表于 2022-7-31 15:57:58 | 显示全部楼层


感谢楼主的无私分享!要想蓝光电影网好 就靠你我他
回复 支持 反对

使用道具 举报

蓝光币
50
发表于 2022-8-1 13:02:07 | 显示全部楼层
不错不错
回复

使用道具 举报

蓝光币
1365
发表于 2022-8-1 16:58:10 | 显示全部楼层

这个帖子不回对不起自己!我想我是一天也不能离开蓝光电影网。
回复 支持 反对

使用道具 举报

蓝光币
3
发表于 2022-8-2 00:30:28 | 显示全部楼层

其实我一直觉得楼主的品味不错!呵呵!蓝光电影网太棒了!
回复 支持 反对

使用道具 举报

懒得打字嘛,点击右侧快捷回复 【右侧内容,后台自定义】
您需要登录后才可以回帖 登录 | 立即加入

本版积分规则

Archiver|小黑屋| 蓝光电影网 |网站地图

Copyright © 2021 Comsenz Inc. Powered by 蓝光电影网

蓝光电影网

本站内容由用户自主分享和转载自互联网,转载目的在于传递更多信息,并不代表本网赞同其观点和对其真实性负责。

如有侵权、违反国家法律政策行为,请联系我们,我们会第一时间及时清除和处理!

举报反馈邮箱:[email protected]

快速回复 返回顶部 返回列表