找回密码

蓝光电影网

查看: 170|回复: 0

[2160p] 热血警探[繁英字幕].Hot.Fuzz.2007.UHD.BluRay.2160p.DTS-HD.MA7.1.x265.10bit.HDR-ALT 21.50GB

[复制链接]
蓝光币
8
发表于 2022-7-31 02:00:22 | 显示全部楼层 |阅读模式


◎标  题 热血警探
◎译  名 爆辣刑警(港) / 终棘警探(台) / 终棘警探 / 热血条子 / 硬派雷子 / 硬派条子
◎片  名 Hot Fuzz
◎年  代 2007
◎产  地 英国 / 法国
◎类  别 笑剧 / 悬疑 / 犯罪
◎语  言 英语
◎上映日期 2007-02-14(英国)
◎IMDb评分 7.8/10 (496266人评价)
◎IMDb链接 https://www.imdb.com/title/tt0425112/
◎豆瓣评分 8.2/10 (170150人评价)
◎豆瓣链接 https://movie.douban.com/subject/1806555/
◎片  长 121分钟
◎导  演 埃德加·赖特 Edgar Wright
◎编  剧 埃德加·赖特 Edgar Wright
       西蒙·佩吉 Simon Pegg
◎演  员 西蒙·佩吉 Simon Pegg
       尼克·弗罗斯特 Nick Frost
       马丁·弗瑞曼 Martin Freeman
       比尔·奈伊 Bill Nighy
       提摩西·道尔顿 Timothy Dalton
       吉姆·布劳德本特 Jim Broadbent
       Robert Popper Robert Popper
       乔·考尼什 Joe Cornish
       Chris Waitt Chris Waitt
       比莉·怀特劳 Billie Whitelaw
       彼得·怀特 Peter Wight
       朱丽亚·迪金 Julia Deakin
       比尔·贝利 Bill Bailey
       保罗·弗里曼 Paul Freeman
       伊丽莎白·埃尔文 Elizabeth Elvin
       斯图亚特·维尔森 Stuart Wilson
       帕迪·康斯戴恩 Paddy Considine
       拉菲·斯波 Rafe Spall
       凯文·埃尔登 Kevin Eldon
       卡尔·约翰逊 Karl Johnson
       Sampson Sampson
       奥利维娅·科尔曼 Olivia Colman
       爱德华·伍德华德 Edward Woodward
       安妮·雷德 Anne Reid
       肯内斯·库兰汉姆 Kenneth Cranham
       亚当·布克斯顿 Adam Buxton
       斯戴芬·莫昌特 Stephen Merchant
       蒂姆·巴洛 Tim Barlow
       罗伊·麦克凯恩 Rory McCann
       爱丽丝·洛维 Alice Lowe
       罗恩·库克 Ron Cook
       大卫·斯瑞弗 David Threlfall
       露茜·彭奇 Lucy Punch
       大卫·布拉德利 David Bradley
       Maria Charles Maria Charles
       凯特·布兰切特 Cate Blanchett
       史蒂夫·库根 Steve Coogan
       大卫·威廉·詹姆斯·埃利奥特 David William James Elliott
       彼得·杰克逊 Peter Jackson
       加斯·詹宁斯 Garth Jennings
       约瑟夫·麦克曼纳斯 Joseph McManners
        Joel Stubbs
       埃德加·赖特 Edgar Wright
       埃里克·菲尔纳 Eric Fellner
       尼拉·帕克 Nira Park
       Natascha Wharton Natascha Wharton
       蒂姆·贝文 Tim Bevan
       大卫·阿诺德 David Arnold
       杰斯·霍尔 Jess Hall
       克里斯·狄更斯 Chris Dickens
       妮娜·古德 Nina Gold
       安妮·哈丁 Annie Hardinge
       Jane Walker Jane Walker
       Tricia Cameron Tricia Cameron
       亚撒·肖尔 Asa Shoul
       Andrew Chapman Andrew Chapman
       Imery Watson Imery Watson
       皮特·汉森 Pete Hanson
       Val Wardlaw Val Wardlaw
       约翰·霍格沃德 Jan Hogevold
       安德鲁·洛克利 Andrew Lockley
       John Lockwood John Lockwood
       Mark Tremble Mark Tremble
       彼特·贝布 Pete Bebb
       Marco Checa Garcia Marco Checa Garcia
        Rafiqur Khan
       马丁·R·戴维森 Martin R. Davison
       布莱恩·克里格斯曼 Brian Krijgsman
       詹姆斯·D·弗莱明 James D. Fleming
       苏珊娜·莱顿 Susanna Lenton
◎简  介
  尼古拉斯•安奇尔(西蒙•佩吉Simon Pegg 饰)在伦敦担任高级巡警,抓贼破案似乎是他最大的兴趣。为此他成为警局中最敬业最能干的警察。但这却招致了警长的妒嫉,不幸的尼古拉斯被调至一个偏僻安静的小镇当差人。                                    
                                小镇已经几十年没有过恶性犯罪事务。尼古拉斯在那边过得相当郁闷 ,他感觉自己的擒贼本事没有发挥空间。更令他懊恼的是,镇里差人局局长儿子丹尼•巴特曼(尼克•弗罗斯特 Nick Frost 饰)也来凑热烈,成为他的同伴。这个新同伴麻烦至极,成天询问大城市的警察履历。正在尼古拉斯烦心于镇里鸡毛蒜皮的事务和身旁的苯同伴时,镇里却发生了一桩案件,让尼古拉斯嗅到了大展拳脚的机遇,惊心动魄的战争起头了。
  1. ##### MediaInfo ######
  2. General
  3. Unique ID                                : 138211041488001618758414033463574155998 (0x67FA7A74CBD519BF6E188C4502CE52DE)
  4. Complete name                            : Hot.Fuzz.2007.UHD.BluRay.2160p.DTS-HD.MA7.1.x265.10bit.HDR-ALT.mkv
  5. Format                                   : Matroska
  6. Format version                           : Version 4
  7. File size                                : 21.5 GiB
  8. Duration                                 : 2 h 0 min
  9. Overall bit rate mode                    : Variable
  10. Overall bit rate                         : 25.5 Mb/s
  11. Encoded date                             : UTC 2019-09-29 05:00:09
  12. Writing application                      : mkvmerge v37.0.0 ('Leave It') 64-bit
  13. Writing library                          : libebml v1.3.9 + libmatroska v1.5.2
  14. Video
  15. ID                                       : 1
  16. Format                                   : HEVC
  17. Format/Info                              : High Efficiency Video Coding
  18. Format profile                           : Main [email protected]@High
  19. HDR format                               : SMPTE ST 2086, HDR10 compatible
  20. Codec ID                                 : V_MPEGH/ISO/HEVC
  21. Duration                                 : 2 h 0 min
  22. Bit rate                                 : 18.0 Mb/s
  23. Width                                    : 3 840 pixels
  24. Height                                   : 1 634 pixels
  25. Display aspect ratio                     : 2.35:1
  26. Frame rate mode                          : Constant
  27. Frame rate                               : 23.976 (24000/1001/53875) FPS
  28. Color space                              : YUV
  29. Chroma subsampling                       : 4:2:0 (Type 2)
  30. Bit depth                                : 10 bits
  31. Bits/(Pixel*Frame)                       : 0.120
  32. Stream size                              : 15.2 GiB (71%)
  33. Title                                    : HEVC, [email protected]@High, 24/1.001 fps @ 17992 kbps
  34. Writing library                          : x265 3.0_Au+4-dcbec33bfb0f:[Windows][GCC 8.2.1][64 bit] 10bit
  35. Encoding settings                        : cpuid=538751111039 / frame-threads=5 / numa-pools=44,44 / wpp / no-pmode / pme / no-psnr / no-ssim / log-level=2 / input-csp=1 / input-res=3840x1634 / interlace=0 / total-frames=173805 / level-idc=51 / high-tier=1 / uhd-bd=0 / ref=4 / no-allow-non-conformance / repeat-headers / annexb / no-aud / hrd / info / hash=0 / no-temporal-layers / no-open-gop / min-keyint=24 / keyint=240 / gop-lookahead=0 / bframes=8 / b-adapt=2 / b-pyramid / bframe-bias=0 / rc-lookahead=25 / lookahead-slices=0 / NTM4NzU=uuDQuD2mJt9fsCf / scenecut=40 / radl=0 / no-splice / no-intra-refresh / ctu=64 / min-cu-size=8 / no-rect / no-amp / max-tu-size=32 / tu-inter-depth=3 / tu-intra-depth=3 / limit-tu=4 / rdoq-level=2 / dynamic-rd=0.00 / no-ssim-rd / signhide / no-tskip / nr-intra=0 / nr-inter=0 / no-constrained-intra / no-strong-intra-smoothing / max-merge=4 / limit-refs=1 / limit-modes / me=3 / subme=4 / merange=25 / temporal-mvp / weightp / weightb / no-analyze-src-pics / deblock=-3:-3 / no-sao / no-sao-non-deblock / rd=6 / no-early-skip / rskip / no-fast-intra / no-tskip-fast / no-cu-lossless / b-intra / no-splitrd-skip / rdpenalty=0 / psy-rd=2.00 / psy-rdoq=1.00 / no-rd-refine / no-lossless / cbqpoffs=0 / crqpoffs=0 / rc=crf / crf=18.5 / qcomp=0.65 / qpstep=4 / stats-write=0 / stats-read=0 / vbv-maxrate=160000 / vbv-bufsize=160000 / vbv-init=0.9 / crf-max=0.0 / crf-min=0.0 / ipratio=1.30 / pbratio=1.20 / aq-mode=3 / aq-strength=0.85 / cutree / zone-count=0 / no-strict-cbr / qg-size=32 / no-rc-grain / qpmax=69 / qpmin=0 / no-const-vbv / sar=1 / overscan=0 / videoformat=5 / range=0 / colorprim=9 / transfer=16 / colormatrix=9 / chromaloc=1 / chromaloc-top=2 / chromaloc-bottom=2 / display-window=0 / master-display=G(13250,34500)B(7500,3000)R(34000,16000)WP(15635,16450)L(10000000,50) / max-cll=960,336 / min-luma=0 / max-luma=1023 / log2-max-poc-lsb=8 / vui-timing-info / vui-hrd-info / slices=1 / no-opt-qp-pps / no-opt-ref-list-length-pps / no-multi-pass-opt-rps / scenecut-bias=0.05 / no-opt-cu-delta-qp / no-aq-motion / hdr / hdr-opt / no-dhdr10-opt / no-idr-recovery-sei / analysis-reuse-level=5 / scale-factor=0 / refine-intra=0 / refine-inter=0 / refine-mv=0 / refine-ctu-distortion=0 / no-limit-sao / ctu-info=0 / no-lowpass-dct / refine-analysis-type=0 / copy-pic=1 / max-ausize-factor=1.0 / no-dynamic-refine / no-single-sei / no-hevc-aq / qp-adaptation-range=1.00
  36. Language                                 : English
  37. Default                                  : Yes
  38. Forced                                   : No
  39. Color range                              : Limited
  40. Color primaries                          : BT.2020
  41. Transfer characteristics                 : PQ
  42. Matrix coefficients                      : BT.2020 non-constant
  43. Mastering display color primaries        : Display P3
  44. Mastering display luminance              : min: 0.0050 cd/m2, max: 1000 cd/m2
  45. Maximum Content Light Level              : 960 cd/m2
  46. Maximum Frame-Average Light Level        : 336 cd/m2
  47. Audio #1
  48. ID                                       : 2
  49. Format                                   : DTS XLL X
  50. Format/Info                              : Digital Theater Systems
  51. Commercial name                          : DTS-HD Master Audio
  52. Codec ID                                 : A_DTS
  53. Duration                                 : 2 h 0 min
  54. Bit rate mode                            : Variable
  55. Bit rate                                 : 5 998 kb/s
  56. Channel(s)                               : 8 channels
  57. Channel(s)_Original                      : Object Based
  58. ChannelLayout_Original                   : Object Based
  59. Sampling rate                            : 48.0 kHz
  60. Frame rate                               : 93.750 FPS (512 SPF)
  61. Bit depth                                : 24 bits
  62. Stream size                              : 5.06 GiB (24%)
  63. Title                                    : English DTS-HD Master Audio 7.1 @ 5998 kbps
  64. Language                                 : English
  65. Default                                  : Yes
  66. Forced                                   : No
  67. Audio #2
  68. ID                                       : 3
  69. Format                                   : AC-3
  70. Format/Info                              : Audio Coding 3
  71. Commercial name                          : Dolby Digital
  72. Codec ID                                 : A_AC3
  73. Duration                                 : 2 h 0 min
  74. Bit rate mode                            : Constant
  75. Bit rate                                 : 192 kb/s
  76. Channel(s)                               : 2 channels
  77. Channel layout                           : L R
  78. Sampling rate                            : 48.0 kHz
  79. Frame rate                               : 31.250 FPS (1536 SPF)
  80. Compression mode                         : Lossy
  81. Stream size                              : 166 MiB (1%)
  82. Title                                    : English Dolby Digital Audio 2.0 @ 192 kbps  Commentary 1
  83. Language                                 : English
  84. Service kind                             : Complete Main
  85. Default                                  : No
  86. Forced                                   : No
  87. Audio #3
  88. ID                                       : 4
  89. Format                                   : AC-3
  90. Format/Info                              : Audio Coding 3
  91. Commercial name                          : Dolby Digital
  92. Codec ID                                 : A_AC3
  93. Duration                                 : 2 h 0 min
  94. Bit rate mode                            : Constant
  95. Bit rate                                 : 192 kb/s
  96. Channel(s)                               : 2 channels
  97. Channel layout                           : L R
  98. Sampling rate                            : 48.0 kHz
  99. Frame rate                               : 31.250 FPS (1536 SPF)
  100. Compression mode                         : Lossy
  101. Stream size                              : 166 MiB (1%)
  102. Title                                    : English Dolby Digital Audio 2.0 @ 192 kbps  Commentary 2
  103. Language                                 : English
  104. Service kind                             : Complete Main
  105. Default                                  : No
  106. Forced                                   : No
  107. Audio #4
  108. ID                                       : 5
  109. Format                                   : AC-3
  110. Format/Info                              : Audio Coding 3
  111. Commercial name                          : Dolby Digital
  112. Codec ID                                 : A_AC3
  113. Duration                                 : 2 h 0 min
  114. Bit rate mode                            : Constant
  115. Bit rate                                 : 192 kb/s
  116. Channel(s)                               : 2 channels
  117. Channel layout                           : L R
  118. Sampling rate                            : 48.0 kHz
  119. Frame rate                               : 31.250 FPS (1536 SPF)
  120. Compression mode                         : Lossy
  121. Stream size                              : 166 MiB (1%)
  122. Title                                    : English Dolby Digital Audio 2.0 @ 192 kbps  Commentary 3
  123. Language                                 : English
  124. Service kind                             : Complete Main
  125. Default                                  : No
  126. Forced                                   : No
  127. Audio #5
  128. ID                                       : 6
  129. Format                                   : AC-3
  130. Format/Info                              : Audio Coding 3
  131. Commercial name                          : Dolby Digital
  132. Codec ID                                 : A_AC3
  133. Duration                                 : 2 h 0 min
  134. Bit rate mode                            : Constant
  135. Bit rate                                 : 192 kb/s
  136. Channel(s)                               : 2 channels
  137. Channel layout                           : L R
  138. Sampling rate                            : 48.0 kHz
  139. Frame rate                               : 31.250 FPS (1536 SPF)
  140. Compression mode                         : Lossy
  141. Stream size                              : 166 MiB (1%)
  142. Title                                    : English Dolby Digital Audio 2.0 @ 192 kbps  Commentary 4
  143. Language                                 : English
  144. Service kind                             : Complete Main
  145. Default                                  : No
  146. Forced                                   : No
  147. Audio #6
  148. ID                                       : 7
  149. Format                                   : AC-3
  150. Format/Info                              : Audio Coding 3
  151. Commercial name                          : Dolby Digital
  152. Codec ID                                 : A_AC3
  153. Duration                                 : 2 h 0 min
  154. Bit rate mode                            : Constant
  155. Bit rate                                 : 192 kb/s
  156. Channel(s)                               : 2 channels
  157. Channel layout                           : L R
  158. Sampling rate                            : 48.0 kHz
  159. Frame rate                               : 31.250 FPS (1536 SPF)
  160. Compression mode                         : Lossy
  161. Stream size                              : 166 MiB (1%)
  162. Title                                    : English Dolby Digital Audio 2.0 @ 192 kbps  Commentary 5
  163. Service kind                             : Complete Main
  164. Default                                  : No
  165. Forced                                   : No
  166. Text #1
  167. ID                                       : 8
  168. Format                                   : PGS
  169. Codec ID                                 : S_HDMV/PGS
  170. Codec ID/Info                            : Picture based subtitle format used on BDs/HD-DVDs
  171. Duration                                 : 1 h 55 min
  172. Bit rate                                 : 49.2 kb/s
  173. Count of elements                        : 4062
  174. Stream size                              : 40.5 MiB (0%)
  175. Title                                    : Eng/SUP
  176. Language                                 : English
  177. Default                                  : No
  178. Forced                                   : No
  179. Text #2
  180. ID                                       : 9
  181. Format                                   : PGS
  182. Codec ID                                 : S_HDMV/PGS
  183. Codec ID/Info                            : Picture based subtitle format used on BDs/HD-DVDs
  184. Duration                                 : 1 h 59 min
  185. Bit rate                                 : 31.7 kb/s
  186. Count of elements                        : 3128
  187. Stream size                              : 27.1 MiB (0%)
  188. Title                                    : Cht/SUP  繁体(HK)
  189. Language                                 : Chinese
  190. Default                                  : No
  191. Forced                                   : No
  192. Text #3
  193. ID                                       : 10
  194. Format                                   : PGS
  195. Codec ID                                 : S_HDMV/PGS
  196. Codec ID/Info                            : Picture based subtitle format used on BDs/HD-DVDs
  197. Duration                                 : 1 h 59 min
  198. Bit rate                                 : 32.3 kb/s
  199. Count of elements                        : 3128
  200. Stream size                              : 27.7 MiB (0%)
  201. Title                                    : Cht/SUP  繁体(TW)
  202. Language                                 : Chinese
  203. Default                                  : Yes
  204. Forced                                   : No
  205. Text #4
  206. ID                                       : 11
  207. Format                                   : PGS
  208. Codec ID                                 : S_HDMV/PGS
  209. Codec ID/Info                            : Picture based subtitle format used on BDs/HD-DVDs
  210. Duration                                 : 2 h 0 min
  211. Bit rate                                 : 89.1 kb/s
  212. Count of elements                        : 5189
  213. Stream size                              : 77.0 MiB (0%)
  214. Title                                    : Eng/SUP  Commentary 1
  215. Language                                 : English
  216. Default                                  : No
  217. Forced                                   : No
  218. Text #5
  219. ID                                       : 12
  220. Format                                   : PGS
  221. Codec ID                                 : S_HDMV/PGS
  222. Codec ID/Info                            : Picture based subtitle format used on BDs/HD-DVDs
  223. Duration                                 : 1 h 56 min
  224. Bit rate                                 : 82.0 kb/s
  225. Count of elements                        : 5322
  226. Stream size                              : 68.2 MiB (0%)
  227. Title                                    : Eng/SUP  Commentary 2
  228. Language                                 : English
  229. Default                                  : No
  230. Forced                                   : No
  231. Text #6
  232. ID                                       : 13
  233. Format                                   : PGS
  234. Codec ID                                 : S_HDMV/PGS
  235. Codec ID/Info                            : Picture based subtitle format used on BDs/HD-DVDs
  236. Duration                                 : 2 h 0 min
  237. Bit rate                                 : 88.3 kb/s
  238. Count of elements                        : 4514
  239. Stream size                              : 76.2 MiB (0%)
  240. Title                                    : Eng/SUP  Commentary 3
  241. Language                                 : English
  242. Default                                  : No
  243. Forced                                   : No
  244. Text #7
  245. ID                                       : 14
  246. Format                                   : PGS
  247. Codec ID                                 : S_HDMV/PGS
  248. Codec ID/Info                            : Picture based subtitle format used on BDs/HD-DVDs
  249. Duration                                 : 1 h 55 min
  250. Bit rate                                 : 75.4 kb/s
  251. Count of elements                        : 4590
  252. Stream size                              : 62.3 MiB (0%)
  253. Title                                    : Eng/SUP  Commentary 4
  254. Language                                 : English
  255. Default                                  : No
  256. Forced                                   : No
  257. Text #8
  258. ID                                       : 15
  259. Format                                   : PGS
  260. Codec ID                                 : S_HDMV/PGS
  261. Codec ID/Info                            : Picture based subtitle format used on BDs/HD-DVDs
  262. Duration                                 : 2 h 0 min
  263. Bit rate                                 : 76.0 kb/s
  264. Count of elements                        : 4666
  265. Stream size                              : 65.6 MiB (0%)
  266. Title                                    : Eng/SUP  Commentary 5
  267. Language                                 : English
  268. Default                                  : No
  269. Forced                                   : No
  270. Menu
  271. 00:00:00.000                             : en:绗?01 绔?
  272. 00:02:26.438                             : en:绗?02 绔?
  273. 00:05:23.406                             : en:绗?03 绔?
  274. 00:07:15.935                             : en:绗?04 绔?
  275. 00:12:10.146                             : en:绗?05 绔?
  276. 00:14:07.430                             : en:绗?06 绔?
  277. 00:21:39.381                             : en:绗?07 绔?
  278. 00:25:47.796                             : en:绗?08 绔?
  279. 00:28:46.475                             : en:绗?09 绔?
  280. 00:32:08.593                             : en:绗?10 绔?
  281. 00:35:27.792                             : en:绗?11 绔?
  282. 00:39:07.762                             : en:绗?12 绔?
  283. 00:42:11.988                             : en:绗?13 绔?
  284. 00:44:56.027                             : en:绗?14 绔?
  285. 00:49:26.755                             : en:绗?15 绔?
  286. 00:54:58.420                             : en:绗?16 绔?
  287. 01:01:45.076                             : en:绗?17 绔?
  288. 01:09:24.410                             : en:绗?18 绔?
  289. 01:16:58.697                             : en:绗?19 绔?
  290. 01:19:14.917                             : en:绗?20 绔?
  291. 01:28:59.334                             : en:绗?21 绔?
  292. 01:31:40.245                             : en:绗?22 绔?
  293. 01:41:13.985                             : en:绗?23 绔?
  294. 01:45:30.533                             : en:绗?24 绔?
  295. 01:50:49.142                             : en:绗?25 绔?
  296. 01:52:01.965                             : en:绗?26 绔?
  297. 01:53:54.578                             : en:绗?27 绔?
  298. 01:55:14.825                             : en:绗?28 绔?
复制代码

















保举请利用qBittorrent,utorrent,transmission等标准BT软件下载!以获得最快速度。奉求保种!





回复

使用道具 举报

懒得打字嘛,点击右侧快捷回复 【右侧内容,后台自定义】
您需要登录后才可以回帖 登录 | 立即加入

本版积分规则

Archiver|小黑屋| 蓝光电影网 |网站地图

Copyright © 2021 Comsenz Inc. Powered by 蓝光电影网

蓝光电影网

本站内容由用户自主分享和转载自互联网,转载目的在于传递更多信息,并不代表本网赞同其观点和对其真实性负责。

如有侵权、违反国家法律政策行为,请联系我们,我们会第一时间及时清除和处理!

举报反馈邮箱:[email protected]

快速回复 返回顶部 返回列表