找回密码

蓝光电影网

查看: 287|回复: 1

[2160p] 夺宝奇兵[共4部合集][国英多音轨/简繁英双语字幕].Indiana.Jones.4-Movie.Collection.1981-2008.UHD.BluRay.2160p.2Audio.TrueHD.Atmos.7.1.x265.10bit.HDR-ALT 110.16GB

[复制链接]
蓝光币
8
发表于 2022-7-31 02:00:21 | 显示全部楼层 |阅读模式


◎标  题 夺宝奇兵
◎译  名 法柜奇兵 / 夺宝奇兵:法柜奇兵 / 印地安纳・琼斯之夺宝奇兵 / Indiana Jones and the Raiders of the Lost Ark
◎片  名 Raiders of the Lost Ark
◎年  代 1981
◎产  地 美国 / 英国
◎类  别 行动 / 冒险
◎语  言 英语 / 德语 / 希伯来语 / 西班牙语 / 阿拉伯语 / 尼泊尔语
◎上映日期 1981-06-12(美国)
◎IMDb评分 8.4/10 (924767人评价)
◎IMDb链接 https://www.imdb.com/title/tt0082971/
◎豆瓣评分 7.9/10 (80764人评价)
◎豆瓣链接 https://movie.douban.com/subject/1296717/
◎片  长 115 分钟
◎导  演 史蒂文·斯皮尔伯格 Steven Spielberg
◎编  剧 劳伦斯·卡斯丹 Lawrence Kasdan
       乔治·卢卡斯 George Lucas
       菲利普·考夫曼 Philip Kaufman
◎演  员 哈里森·福特 Harrison Ford
       凯伦·阿兰 Karen Allen
       保罗·弗里曼 Paul Freeman
       约翰·瑞斯-戴维斯 John Rhys-Davies
       基兰·沙阿 Kiran Shah
       弗兰克·马歇尔 Frank Marshall
       乔治·哈里斯 George Harris
       阿尔弗雷德·莫里纳 Alfred Molina
       帕特·罗奇 Pat Roach
       安东尼·希金斯 Anthony Higgins
       罗纳德·莱西 Ronald Lacey
       丹霍姆·艾略特 Denholm Elliott
       特里·伦纳德 Terry Leonard
       Nick Gillard Nick Gillard
       乔治·卢卡斯 George Lucas
       罗伯特·沃茨 Robert Watts
       霍华德·G·卡赞强 Howard G. Kazanjian
       约翰·威廉姆斯 John Williams
       乔治·卢卡斯 George Lucas
       迈克·芬顿 Mike Fenton
       诺曼·雷诺兹 Norman Reynolds
       迈克尔·福特 Michael Ford
       莱斯利·迪利 Leslie Dilley
       戴博拉·纳杜尔曼 Deborah Nadoolman
       克里斯·瓦拉斯 Chris Walas
       Mike Lockey Mike Lockey
       Sylvia Keulen Sylvia Keulen
       尼尔·克雷佩拉 Neil Krepela
       Michael Pangrazio Michael Pangrazio
       John McLeod John McLeod
       塞恩·莫里斯 Thaine Morris
       洛尔恩·彼得森 Lorne Peterson
       Nilo Rodis-Jamero Nilo Rodis-Jamero
       托马斯·罗塞特 Thomas Rosseter
       肯尼斯·史姑娘 Kenneth Smith
       Thomas G. Smith Thomas G. Smith
       约翰·T·范弗利特 John T. Van Vliet
       加里·沃勒 Garry Waller
       约翰·埃利斯 John Ellis
       埃德·琼斯 Ed Jones
       保罗·哈特森 Paul Huston
       贝丝·达马托 Beth D'Amato
       布鲁斯·尼科尔森 Bruce Nicholson
       Charles Bailey Charles Bailey
       克莱格·巴朗 Craig Barron
       康拉德·巴夫四世 Conrad Buff IV
       Laura Buff Laura Buff
       爱德华·赫希 Edward Hirsh
       史蒂夫·高利 Steve Gawley
◎标  签 冒险 / 斯皮尔伯格 / 美国 / 行动 / 探险 / 典范 / 美国电影 / 1981
◎简  介
  二战时代,希特勒在天下各地召集考古学家寻觅“失落的约柜”——圣经中指导希伯来人与天主交换的圣物,希特勒欲借其来护佑纳粹的战争。                                    
                                为了使希特勒的计划幻灭,印第安纳琼斯博士(Harrison Ford饰)奔赴尼泊尔,一边奋力挖掘千丝万缕,一边还要与无孔不入的纳粹份子周旋。凭仗着过人的聪明和异于凡人的胆子及大无畏的勇气,琼斯终究在罗马找到了指示约柜位置的太阳手杖,继而发现了约柜。                                    
                                就在大功乐成之际,纳粹军却并吞了成功果实,还将琼斯等人留在了蛇穴里!可是无往不胜的琼斯总是有法子死里逃生,并狠狠地还以色彩!
  1. 合集文件列表:
  2. 1.Indiana.Jones.and.the.Kingdom.of.the.Crystal.Skull.2008.UHD.BluRay.2160p.2Audio.TrueHD.Atmos.7.1.x265.10bit.HDR-ALT.mkv 23.23GB
  3. 2.Indiana.Jones.And.The.Last.Crusade.1989.UHD.BluRay.2160p.2Audio.TrueHD.Atmos.7.1.x265.10bit.HDR-ALT.mkv 31.35GB
  4. 3.Indiana.Jones.and.the.Temple.of.Doom.1984.UHD.BluRay.2160p.2Audio.TrueHD.Atmos.7.1.x265.10bit.HDR-ALT.mkv 30.23GB
  5. 4.Raiders.Of.The.Lost.Ark.1981.UHD.BluRay.2160p.2Audio.TrueHD.Atmos.7.1.x265.10bit.HDR-ALT.mkv 25.36GB
复制代码
  1. ##### MediaInfo ######
  2. General
  3. Unique ID                                : 312084434912770547229488982913425926751 (0xEAC9469D4A73098AEF5F417F2650EA5F)
  4. Complete name                            : Indiana.Jones.and.the.Kingdom.of.the.Crystal.Skull.2008.UHD.BluRay.2160p.2Audio.TrueHD.Atmos.7.1.x265.10bit.HDR-ALT.mkv
  5. Format                                   : Matroska
  6. Format version                           : Version 4
  7. File size                                : 23.2 GiB
  8. Duration                                 : 2 h 2 min
  9. Overall bit rate mode                    : Variable
  10. Overall bit rate                         : 27.2 Mb/s
  11. Encoded date                             : UTC 2021-08-03 03:31:16
  12. Writing application                      : mkvmerge v49.0.0 ('Sick Of Losing Soulmates') 64-bit
  13. Writing library                          : libebml v1.4.0 + libmatroska v1.6.1
  14. Video
  15. ID                                       : 1
  16. Format                                   : HEVC
  17. Format/Info                              : High Efficiency Video Coding
  18. Format profile                           : Main [email protected]@High
  19. HDR format                               : SMPTE ST 2086, HDR10 compatible
  20. Codec ID                                 : V_MPEGH/ISO/HEVC
  21. Duration                                 : 2 h 2 min
  22. Bit rate                                 : 16.5 Mb/s
  23. Width                                    : 3 840 pixels
  24. Height                                   : 1 606 pixels
  25. Display aspect ratio                     : 2.40:1
  26. Frame rate mode                          : Constant
  27. Frame rate                               : 23.976 (24000/1001/53875) FPS
  28. Color space                              : YUV
  29. Chroma subsampling                       : 4:2:0 (Type 2)
  30. Bit depth                                : 10 bits
  31. Bits/(Pixel*Frame)                       : 0.112
  32. Stream size                              : 14.1 GiB (61%)
  33. Title                                    : HEVC, [email protected]@High, 24/1.001 fps @ 16152 kbps
  34. Writing library                          : x265 3.4+14-gd419c7152:[Windows][GCC 10.2.0][64 bit] 10bit
  35. Encoding settings                        : cpuid=538751111039 / frame-threads=4 / numa-pools=16 / wpp / pmode / pme / no-psnr / no-ssim / log-level=2 / input-csp=1 / input-res=3840x1606 / interlace=0 / total-frames=176218 / level-idc=51 / high-tier=1 / uhd-bd=0 / ref=4 / no-allow-non-conformance / repeat-headers / annexb / no-aud / hrd / info / hash=0 / no-temporal-layers / no-open-gop / min-keyint=24 / keyint=240 / gop-lookahead=0 / bframes=8 / b-adapt=2 / b-pyramid / bframe-bias=0 / rc-lookahead=25 / lookahead-slices=0 / NTM4NzU=uuDQuD2mJt9fsCf / scenecut=40 / hist-scenecut=0 / radl=0 / no-splice / no-intra-refresh / ctu=64 / min-cu-size=8 / no-rect / no-amp / max-tu-size=32 / tu-inter-depth=3 / tu-intra-depth=3 / limit-tu=4 / rdoq-level=2 / dynamic-rd=0.00 / no-ssim-rd / signhide / no-tskip / nr-intra=0 / nr-inter=0 / no-constrained-intra / no-strong-intra-smoothing / max-merge=4 / limit-refs=1 / limit-modes / me=3 / subme=4 / merange=25 / temporal-mvp / no-frame-dup / no-hme / weightp / weightb / no-analyze-src-pics / deblock=-3:-3 / no-sao / no-sao-non-deblock / rd=6 / selective-sao=0 / no-early-skip / rskip / no-fast-intra / no-tskip-fast / no-cu-lossless / b-intra / no-splitrd-skip / rdpenalty=0 / psy-rd=2.00 / psy-rdoq=1.00 / no-rd-refine / no-lossless / cbqpoffs=0 / crqpoffs=0 / rc=crf / crf=21.5 / qcomp=0.65 / qpstep=4 / stats-write=0 / stats-read=0 / vbv-maxrate=160000 / vbv-bufsize=160000 / vbv-init=0.9 / crf-max=0.0 / crf-min=0.0 / ipratio=1.30 / pbratio=1.20 / aq-mode=3 / aq-strength=0.85 / cutree / zone-count=0 / no-strict-cbr / qg-size=32 / no-rc-grain / qpmax=69 / qpmin=0 / no-const-vbv / sar=1 / overscan=0 / videoformat=5 / range=0 / colorprim=9 / transfer=16 / colormatrix=9 / chromaloc=1 / chromaloc-top=2 / chromaloc-bottom=2 / display-window=0 / master-display=G(13250,34500)B(7500,3000)R(34000,16000)WP(15635,16450)L(40000000,50) / cll=1000,265 / min-luma=0 / max-luma=1023 / log2-max-poc-lsb=8 / vui-timing-info / vui-hrd-info / slices=1 / no-opt-qp-pps / no-opt-ref-list-length-pps / no-multi-pass-opt-rps / scenecut-bias=0.05 / hist-threshold=0.03 / no-opt-cu-delta-qp / no-aq-motion / hdr10 / hdr10-opt / no-dhdr10-opt / no-idr-recovery-sei / analysis-reuse-level=0 / analysis-save-reuse-level=0 / analysis-load-reuse-level=0 / scale-factor=0 / refine-intra=0 / refine-inter=0 / refine-mv=1 / refine-ctu-distortion=0 / no-limit-sao / ctu-info=0 / no-lowpass-dct / refine-analysis-type=0 / copy-pic=1 / max-ausize-factor=1.0 / no-dynamic-refine / no-single-sei / no-hevc-aq / no-svt / no-field / qp-adaptation-range=1.00 / no-scenecut-aware-qpconformance-window-offsets / right=0 / bottom=0 / NTM4NzU= / decoder-max-rate=0
  36. Language                                 : English
  37. Default                                  : Yes
  38. Forced                                   : No
  39. Color range                              : Limited
  40. Color primaries                          : BT.2020
  41. Transfer characteristics                 : PQ
  42. Matrix coefficients                      : BT.2020 non-constant
  43. Mastering display color primaries        : Display P3
  44. Mastering display luminance              : min: 0.0050 cd/m2, max: 4000 cd/m2
  45. Maximum Content Light Level              : 1000 cd/m2
  46. Maximum Frame-Average Light Level        : 265 cd/m2
  47. Audio #1
  48. ID                                       : 2
  49. Format                                   : MLP FBA 16-ch
  50. Format/Info                              : Meridian Lossless Packing FBA with 16-channel presentation
  51. Commercial name                          : Dolby TrueHD with Dolby Atmos
  52. Codec ID                                 : A_TRUEHD
  53. Duration                                 : 2 h 2 min
  54. Bit rate mode                            : Variable
  55. Bit rate                                 : 4 083 kb/s
  56. Maximum bit rate                         : 6 465 kb/s
  57. Channel(s)                               : 8 channels
  58. Channel layout                           : L R C LFE Ls Rs Lb Rb
  59. Sampling rate                            : 48.0 kHz
  60. Frame rate                               : 1 200.000 FPS (40 SPF)
  61. Compression mode                         : Lossless
  62. Stream size                              : 3.49 GiB (15%)
  63. Title                                    : English Dolby TrueHD 7.1 (Atmos) @ 4723 kbps
  64. Language                                 : English
  65. Default                                  : Yes
  66. Forced                                   : No
  67. Number of dynamic objects                : 11
  68. Bed channel count                        : 1 channel
  69. Bed channel configuration                : LFE
  70. Audio #2
  71. ID                                       : 3
  72. Format                                   : AC-3
  73. Format/Info                              : Audio Coding 3
  74. Commercial name                          : Dolby Digital
  75. Codec ID                                 : A_AC3
  76. Duration                                 : 2 h 2 min
  77. Bit rate mode                            : Constant
  78. Bit rate                                 : 640 kb/s
  79. Channel(s)                               : 6 channels
  80. Channel layout                           : L R C LFE Ls Rs
  81. Sampling rate                            : 48.0 kHz
  82. Frame rate                               : 31.250 FPS (1536 SPF)
  83. Compression mode                         : Lossy
  84. Stream size                              : 561 MiB (2%)
  85. Title                                    : English Dolby Digital Audio 5.1 @ 640 kbps
  86. Language                                 : English
  87. Service kind                             : Complete Main
  88. Default                                  : No
  89. Forced                                   : No
  90. Audio #3
  91. ID                                       : 4
  92. Format                                   : AC-3
  93. Format/Info                              : Audio Coding 3
  94. Commercial name                          : Dolby Digital
  95. Codec ID                                 : A_AC3
  96. Duration                                 : 2 h 2 min
  97. Bit rate mode                            : Constant
  98. Bit rate                                 : 448 kb/s
  99. Channel(s)                               : 6 channels
  100. Channel layout                           : L R C LFE Ls Rs
  101. Sampling rate                            : 48.0 kHz
  102. Frame rate                               : 31.250 FPS (1536 SPF)
  103. Compression mode                         : Lossy
  104. Stream size                              : 393 MiB (2%)
  105. Title                                    : Mandarin Dolby Digital Audio 5.1 @ 448 kbps (驴脾性混音)
  106. Language                                 : Chinese
  107. Service kind                             : Complete Main
  108. Default                                  : No
  109. Forced                                   : No
  110. Audio #4
  111. ID                                       : 5
  112. Format                                   : DTS XLL
  113. Format/Info                              : Digital Theater Systems
  114. Commercial name                          : DTS-HD Master Audio
  115. Codec ID                                 : A_DTS
  116. Duration                                 : 2 h 2 min
  117. Bit rate mode                            : Variable
  118. Bit rate                                 : 5 245 kb/s
  119. Channel(s)                               : 8 channels
  120. Channel layout                           : C L R LFE Lb Rb Lss Rss
  121. Sampling rate                            : 48.0 kHz
  122. Frame rate                               : 93.750 FPS (512 SPF)
  123. Bit depth                                : 24 bits
  124. Compression mode                         : Lossless
  125. Stream size                              : 4.49 GiB (19%)
  126. Title                                    : DTS-HD Master Audio 7.1 @ 4623 kbps (重编码)
  127. Language                                 : Chinese
  128. Default                                  : No
  129. Forced                                   : No
  130. Text #1
  131. ID                                       : 6
  132. Format                                   : PGS
  133. Codec ID                                 : S_HDMV/PGS
  134. Codec ID/Info                            : Picture based subtitle format used on BDs/HD-DVDs
  135. Duration                                 : 1 h 54 min
  136. Bit rate                                 : 26.8 kb/s
  137. Count of elements                        : 2084
  138. Stream size                              : 22.0 MiB (0%)
  139. Title                                    : Eng/SUP
  140. Language                                 : English
  141. Default                                  : No
  142. Forced                                   : No
  143. Text #2
  144. ID                                       : 7
  145. Format                                   : PGS
  146. Codec ID                                 : S_HDMV/PGS
  147. Codec ID/Info                            : Picture based subtitle format used on BDs/HD-DVDs
  148. Duration                                 : 1 h 55 min
  149. Bit rate                                 : 29.4 kb/s
  150. Count of elements                        : 2396
  151. Stream size                              : 24.3 MiB (0%)
  152. Title                                    : Eng/SUP  SDH
  153. Language                                 : English
  154. Default                                  : No
  155. Forced                                   : No
  156. Text #3
  157. ID                                       : 8
  158. Format                                   : PGS
  159. Codec ID                                 : S_HDMV/PGS
  160. Codec ID/Info                            : Picture based subtitle format used on BDs/HD-DVDs
  161. Duration                                 : 2 h 1 min
  162. Bit rate                                 : 18.1 kb/s
  163. Count of elements                        : 2052
  164. Stream size                              : 15.7 MiB (0%)
  165. Title                                    : Chs/SUP  原盘简体
  166. Language                                 : Chinese
  167. Default                                  : Yes
  168. Forced                                   : No
  169. Text #4
  170. ID                                       : 9
  171. Format                                   : PGS
  172. Codec ID                                 : S_HDMV/PGS
  173. Codec ID/Info                            : Picture based subtitle format used on BDs/HD-DVDs
  174. Duration                                 : 2 h 1 min
  175. Bit rate                                 : 18.1 kb/s
  176. Count of elements                        : 2044
  177. Stream size                              : 15.7 MiB (0%)
  178. Title                                    : Cht/SUP  原盘繁体(HK)
  179. Language                                 : Chinese
  180. Default                                  : No
  181. Forced                                   : No
  182. Text #5
  183. ID                                       : 10
  184. Format                                   : PGS
  185. Codec ID                                 : S_HDMV/PGS
  186. Codec ID/Info                            : Picture based subtitle format used on BDs/HD-DVDs
  187. Duration                                 : 2 h 1 min
  188. Bit rate                                 : 18.9 kb/s
  189. Count of elements                        : 2034
  190. Stream size                              : 16.4 MiB (0%)
  191. Title                                    : Cht/SUP  原盘繁体(TW)
  192. Language                                 : Chinese
  193. Default                                  : No
  194. Forced                                   : No
  195. Text #6
  196. ID                                       : 11
  197. Format                                   : PGS
  198. Codec ID                                 : S_HDMV/PGS
  199. Codec ID/Info                            : Picture based subtitle format used on BDs/HD-DVDs
  200. Duration                                 : 1 h 56 min
  201. Bit rate                                 : 33.4 kb/s
  202. Count of elements                        : 1918
  203. Stream size                              : 27.9 MiB (0%)
  204. Title                                    : Chs/SUP  简英双语
  205. Language                                 : Chinese
  206. Default                                  : No
  207. Forced                                   : No
  208. Text #7
  209. ID                                       : 12
  210. Format                                   : PGS
  211. Codec ID                                 : S_HDMV/PGS
  212. Codec ID/Info                            : Picture based subtitle format used on BDs/HD-DVDs
  213. Duration                                 : 1 h 56 min
  214. Bit rate                                 : 34.3 kb/s
  215. Count of elements                        : 1918
  216. Stream size                              : 28.7 MiB (0%)
  217. Title                                    : Cht/SUP  繁英双语
  218. Language                                 : Chinese
  219. Default                                  : No
  220. Forced                                   : No
  221. Menu
  222. 00:00:00.000                             : en:第 01 章
  223. 00:07:20.190                             : en:第 02 章
  224. 00:13:10.206                             : en:第 03 章
  225. 00:21:42.635                             : en:第 04 章
  226. 00:27:37.865                             : en:第 05 章
  227. 00:36:57.215                             : en:第 06 章
  228. 00:46:33.624                             : en:第 07 章
  229. 00:55:36.166                             : en:第 08 章
  230. 01:05:45.233                             : en:第 09 章
  231. 01:12:06.781                             : en:第 10 章
  232. 01:21:51.657                             : en:第 11 章
  233. 01:29:11.763                             : en:第 12 章
  234. 01:36:03.007                             : en:第 13 章
  235. 01:44:22.006                             : en:第 14 章
  236. 01:51:07.953                             : en:第 15 章
  237. 01:55:53.738                             : en:第 16 章
复制代码

















保举请利用qBittorrent,utorrent,transmission等标准BT软件下载!以获得最快速度。奉求保种!





回复

使用道具 举报

蓝光币
4
发表于 2022-8-8 23:10:43 | 显示全部楼层
这个很nice
回复 支持 反对

使用道具 举报

懒得打字嘛,点击右侧快捷回复 【右侧内容,后台自定义】
您需要登录后才可以回帖 登录 | 立即加入

本版积分规则

Archiver|小黑屋| 蓝光电影网 |网站地图

Copyright © 2021 Comsenz Inc. Powered by 蓝光电影网

蓝光电影网

本站内容由用户自主分享和转载自互联网,转载目的在于传递更多信息,并不代表本网赞同其观点和对其真实性负责。

如有侵权、违反国家法律政策行为,请联系我们,我们会第一时间及时清除和处理!

举报反馈邮箱:[email protected]

快速回复 返回顶部 返回列表