找回密码

蓝光电影网

查看: 162|回复: 4

[2160p] 王牌保镖2[简繁英双语字幕].Hitmans.Wifes.Bodyguard.2021.UHD.BluRay.2160p.TrueHD.Atmos.7.1.x265.10bit.HDR-ALT 17.84GB

[复制链接]
蓝光币
7
发表于 2022-7-31 02:00:34 | 显示全部楼层 |阅读模式


◎标  题 王牌保镳2
◎译  名 杀手妻子的保镳 / 保镳救杀手2(港) / The Hitman's Bodyguard 2
◎片  名 The Hitman's Wife's Bodyguard
◎年  代 2021
◎产  地 美国 / 英国
◎类  别 笑剧 / 行动 / 犯罪
◎语  言 英语
◎上映日期 2021-06-16(美国)
◎IMDb评分 6.1/10 (63047人评价)
◎IMDb链接 https://www.imdb.com/title/tt8385148/
◎豆瓣评分 6.3/10 (20250人评价)
◎豆瓣链接 https://movie.douban.com/subject/30216729/
◎片  长 116分钟
◎导  演 帕特里克·休斯 Patrick Hughes
◎编  剧 汤姆·奥康纳 Tom O'Connor
       布兰登·墨菲 Brandon Murphy
       菲利普·墨菲 Phillip Murphy
◎演  员 瑞安·雷诺兹 Ryan Reynolds
       塞缪尔·杰克逊 Samuel L. Jackson
       萨尔玛·海耶克 Salma Hayek
       弗兰克·格里罗 Frank Grillo
       理查德·E·格兰特 Richard E. Grant
       安东尼奥·班德拉斯 Antonio Banderas
       摩根·弗里曼 Morgan Freeman
       斯图尔特·亚历山大 Stewart Alexander
       早乙女津和雪 Tsuwayuki Saotome
       丽贝卡·弗朗特 Rebecca Front
       诺杰·赫拉尔 Noortje Herlaar
       迈克尔·戈尔 Michael Gor
       乔治·格伦 Georgie Glen
       巴里·阿茨玛 Barry Atsma
       蒂内·朱斯特拉 Tine Joustra
       加里·奥德曼 Gary Oldman
       玛丽安娜·维基尔斯卡 Mariana Vekilska
       布莱恩·卡斯佩 Brian Caspe
       丹柯·约尔丹诺夫 Danko Jordanov
       西蒙·安德鲁 Simón Andreu
       塞尔吉奥·托里科 Sergio Torrico
       布莱克·瑞特森 Blake Ritson
       汤姆·霍珀 Tom Hopper
       加布里埃拉·赖特 Gabriella Wright
       卡罗琳·古多尔 Caroline Goodall
       爱丽丝·麦克米兰 Alice McMillan
       伊万·朱里奇 Ivan Djuricic
       米尔托斯·耶罗勒曼 Miltos Yerolemou
       帕特里克·休斯 Patrick Hughes
       德拉甘·米恰诺维奇 Dragan Mićanović
       托米·梅 Tomi May
       乔纳斯·塔金顿 Jonas Talkington
       小恩佐·斯奎利诺 Enzo Squillino Jr.
       吉欧里奥·贝鲁蒂 Giulio Berruti
       鲁道夫·科萨托 Rodolfo Corsato
       卡蒙提普·克里希·阿什顿 Kamontip Krissy Ashton
       贝卡·宝陵 Bekka Bowling
       贝恩·科拉科 Bern Collaço
       内森·库珀 Nathan Cooper
       罗杰·金 Roger King
       阿德南·昆迪 Adnan Kundi
       马雷克·里奇滕博格 Marek Lichtenberg
       希滕·珀泰尔 Hiten Patel
       佩特拉·武凯利奇 Petra Vukelic
       Harry Taurasi Harry Taurasi
       Amar Bukvic Amar Bukvic
       Csilla Barath-Bastaic Csilla Barath-Bastaic
       James Maclurcan James Maclurcan
       克里斯蒂娜·坎贝尔 Christa Campbell
       博兹·大卫逊 Boaz Davidson
       瓦伦丁·迪米特洛夫 Valentin Dimitrov
       艾威·勒纳 Avi Lerner
       海蒂·乔·马克尔 Heidi Jo Markel
       艾特利·奥瓦逊 Atli Örvarsson
       特里·斯塔塞 Terry Stacey
       妮科尔·亨布拉 Nicholle Hembra
◎标  签 笑剧 / 行动 / 美国 / 犯罪 / 2021 / 电影 / 欧美 / 電影
◎简  介
  这对世上最要命的混搭-——保镳迈克尔·布莱斯和杀手大流士·金凯,再次履行一项要命使命。                                    
                                大流士频频无常更胜以往的妻子——污名昭著的国际欺骗家索尼娅·金凯迫使布莱斯出山。                                    
                                布莱斯被这俩最危险的庇护工具逼得穷途末路,三人在一个全球级的诡计中堕入窘境,很快还发现他们是一个大疯子复仇欧洲的唯一障碍。                                    
                                摩根·弗里曼也加入了这场风趣而又致命的乱局,他饰演的是——嗯,不能不看。
  1. ##### MediaInfo ######
  2. General
  3. Unique ID                                : 314355957502240766254574252365575190530 (0xEC7EC153263D0D7B351EB7313D817802)
  4. Complete name                            : Hitmans.Wifes.Bodyguard.2021.UHD.BluRay.2160p.TrueHD.Atmos.7.1.x265.10bit.HDR-ALT.mkv
  5. Format                                   : Matroska
  6. Format version                           : Version 4
  7. File size                                : 17.8 GiB
  8. Duration                                 : 1 h 39 min
  9. Overall bit rate mode                    : Variable
  10. Overall bit rate                         : 25.6 Mb/s
  11. Encoded date                             : UTC 2021-08-20 03:43:03
  12. Writing application                      : mkvmerge v49.0.0 ('Sick Of Losing Soulmates') 64-bit
  13. Writing library                          : libebml v1.4.0 + libmatroska v1.6.1
  14. Video
  15. ID                                       : 1
  16. Format                                   : HEVC
  17. Format/Info                              : High Efficiency Video Coding
  18. Format profile                           : Main [email protected]@High
  19. HDR format                               : SMPTE ST 2086, HDR10 compatible
  20. Codec ID                                 : V_MPEGH/ISO/HEVC
  21. Duration                                 : 1 h 39 min
  22. Bit rate                                 : 21.8 Mb/s
  23. Width                                    : 3 840 pixels
  24. Height                                   : 1 610 pixels
  25. Display aspect ratio                     : 2.40:1
  26. Frame rate mode                          : Constant
  27. Frame rate                               : 23.976 (24000/1001/53875) FPS
  28. Color space                              : YUV
  29. Chroma subsampling                       : 4:2:0 (Type 2)
  30. Bit depth                                : 10 bits
  31. Bits/(Pixel*Frame)                       : 0.147
  32. Stream size                              : 15.2 GiB (85%)
  33. Title                                    : HEVC, [email protected]@High, 24/1.001 fps @ 21812 kbps
  34. Writing library                          : x265 3.4+14-gd419c7152:[Windows][GCC 10.2.0][64 bit] 10bit
  35. Encoding settings                        : cpuid=538751111039 / frame-threads=4 / numa-pools=20 / wpp / pmode / pme / no-psnr / no-ssim / log-level=2 / input-csp=1 / input-res=3840x1610 / interlace=0 / total-frames=143425 / level-idc=51 / high-tier=1 / uhd-bd=0 / ref=4 / no-allow-non-conformance / repeat-headers / annexb / no-aud / hrd / info / hash=0 / no-temporal-layers / no-open-gop / min-keyint=24 / keyint=240 / gop-lookahead=0 / bframes=8 / b-adapt=2 / b-pyramid / bframe-bias=0 / rc-lookahead=25 / lookahead-slices=0 / NTM4NzU=uuDQuD2mJt9fsCf / scenecut=40 / hist-scenecut=0 / radl=0 / no-splice / no-intra-refresh / ctu=64 / min-cu-size=8 / no-rect / no-amp / max-tu-size=32 / tu-inter-depth=3 / tu-intra-depth=3 / limit-tu=4 / rdoq-level=2 / dynamic-rd=0.00 / no-ssim-rd / signhide / no-tskip / nr-intra=0 / nr-inter=0 / no-constrained-intra / no-strong-intra-smoothing / max-merge=4 / limit-refs=1 / limit-modes / me=3 / subme=4 / merange=25 / temporal-mvp / no-frame-dup / no-hme / weightp / weightb / no-analyze-src-pics / deblock=-3:-3 / no-sao / no-sao-non-deblock / rd=6 / selective-sao=0 / no-early-skip / rskip / no-fast-intra / no-tskip-fast / no-cu-lossless / b-intra / no-splitrd-skip / rdpenalty=0 / psy-rd=2.00 / psy-rdoq=1.00 / no-rd-refine / no-lossless / cbqpoffs=0 / crqpoffs=0 / rc=crf / crf=18.5 / qcomp=0.65 / qpstep=4 / stats-write=0 / stats-read=0 / vbv-maxrate=160000 / vbv-bufsize=160000 / vbv-init=0.9 / crf-max=0.0 / crf-min=0.0 / ipratio=1.30 / pbratio=1.20 / aq-mode=3 / aq-strength=0.85 / cutree / zone-count=0 / no-strict-cbr / qg-size=32 / no-rc-grain / qpmax=69 / qpmin=0 / no-const-vbv / sar=1 / overscan=0 / videoformat=5 / range=0 / colorprim=9 / transfer=16 / colormatrix=9 / chromaloc=1 / chromaloc-top=2 / chromaloc-bottom=2 / display-window=0 / master-display=G(13250,34500)B(7500,3000)R(34000,16000)WP(15635,16450)L(10000000,10) / cll=1000,543 / min-luma=0 / max-luma=1023 / log2-max-poc-lsb=8 / vui-timing-info / vui-hrd-info / slices=1 / no-opt-qp-pps / no-opt-ref-list-length-pps / no-multi-pass-opt-rps / scenecut-bias=0.05 / hist-threshold=0.03 / no-opt-cu-delta-qp / no-aq-motion / hdr10 / hdr10-opt / no-dhdr10-opt / no-idr-recovery-sei / analysis-reuse-level=0 / analysis-save-reuse-level=0 / analysis-load-reuse-level=0 / scale-factor=0 / refine-intra=0 / refine-inter=0 / refine-mv=1 / refine-ctu-distortion=0 / no-limit-sao / ctu-info=0 / no-lowpass-dct / refine-analysis-type=0 / copy-pic=1 / max-ausize-factor=1.0 / no-dynamic-refine / no-single-sei / no-hevc-aq / no-svt / no-field / qp-adaptation-range=1.00 / no-scenecut-aware-qpconformance-window-offsets / right=0 / bottom=0 / NTM4NzU= / decoder-max-rate=0
  36. Language                                 : English
  37. Default                                  : Yes
  38. Forced                                   : No
  39. Color range                              : Limited
  40. Color primaries                          : BT.2020
  41. Transfer characteristics                 : PQ
  42. Matrix coefficients                      : BT.2020 non-constant
  43. Mastering display color primaries        : Display P3
  44. Mastering display luminance              : min: 0.0010 cd/m2, max: 1000 cd/m2
  45. Maximum Content Light Level              : 1000 cd/m2
  46. Maximum Frame-Average Light Level        : 543 cd/m2
  47. Audio #1
  48. ID                                       : 2
  49. Format                                   : MLP FBA 16-ch
  50. Format/Info                              : Meridian Lossless Packing FBA with 16-channel presentation
  51. Commercial name                          : Dolby TrueHD with Dolby Atmos
  52. Codec ID                                 : A_TRUEHD
  53. Duration                                 : 1 h 39 min
  54. Bit rate mode                            : Variable
  55. Bit rate                                 : 2 930 kb/s
  56. Maximum bit rate                         : 4 608 kb/s
  57. Channel(s)                               : 8 channels
  58. Channel layout                           : L R C LFE Ls Rs Lb Rb
  59. Sampling rate                            : 48.0 kHz
  60. Frame rate                               : 1 200.000 FPS (40 SPF)
  61. Compression mode                         : Lossless
  62. Stream size                              : 2.04 GiB (11%)
  63. Title                                    : English Dolby TrueHD 7.1 (Atmos) @ 3570 kbps
  64. Language                                 : English
  65. Default                                  : Yes
  66. Forced                                   : No
  67. Number of dynamic objects                : 15
  68. Bed channel count                        : 1 channel
  69. Bed channel configuration                : LFE
  70. Audio #2
  71. ID                                       : 3
  72. Format                                   : AC-3
  73. Format/Info                              : Audio Coding 3
  74. Commercial name                          : Dolby Digital
  75. Codec ID                                 : A_AC3
  76. Duration                                 : 1 h 39 min
  77. Bit rate mode                            : Constant
  78. Bit rate                                 : 640 kb/s
  79. Channel(s)                               : 6 channels
  80. Channel layout                           : L R C LFE Ls Rs
  81. Sampling rate                            : 48.0 kHz
  82. Frame rate                               : 31.250 FPS (1536 SPF)
  83. Compression mode                         : Lossy
  84. Stream size                              : 456 MiB (2%)
  85. Title                                    : English Dolby 5.1-EX 5.1 @ 640 kbps
  86. Language                                 : English
  87. Service kind                             : Complete Main
  88. Default                                  : No
  89. Forced                                   : No
  90. Text #1
  91. ID                                       : 4
  92. Format                                   : PGS
  93. Codec ID                                 : S_HDMV/PGS
  94. Codec ID/Info                            : Picture based subtitle format used on BDs/HD-DVDs
  95. Duration                                 : 1 h 32 min
  96. Bit rate                                 : 55.0 kb/s
  97. Count of elements                        : 3252
  98. Stream size                              : 36.4 MiB (0%)
  99. Title                                    : Eng/SUP
  100. Language                                 : English
  101. Default                                  : No
  102. Forced                                   : No
  103. Text #2
  104. ID                                       : 5
  105. Format                                   : PGS
  106. Codec ID                                 : S_HDMV/PGS
  107. Codec ID/Info                            : Picture based subtitle format used on BDs/HD-DVDs
  108. Duration                                 : 1 h 34 min
  109. Bit rate                                 : 61.0 kb/s
  110. Count of elements                        : 2376
  111. Stream size                              : 41.0 MiB (0%)
  112. Title                                    : Chs/SUP  简英双语
  113. Language                                 : Chinese
  114. Default                                  : Yes
  115. Forced                                   : No
  116. Text #3
  117. ID                                       : 6
  118. Format                                   : PGS
  119. Codec ID                                 : S_HDMV/PGS
  120. Codec ID/Info                            : Picture based subtitle format used on BDs/HD-DVDs
  121. Duration                                 : 1 h 34 min
  122. Bit rate                                 : 62.7 kb/s
  123. Count of elements                        : 2376
  124. Stream size                              : 42.1 MiB (0%)
  125. Title                                    : Cht/SUP  繁英双语
  126. Language                                 : Chinese
  127. Default                                  : No
  128. Forced                                   : No
  129. Menu
  130. 00:00:00.000                             : en:第 01 章
  131. 00:05:30.664                             : en:第 02 章
  132. 00:12:17.236                             : en:第 03 章
  133. 00:20:47.788                             : en:第 04 章
  134. 00:26:59.910                             : en:第 05 章
  135. 00:30:44.217                             : en:第 06 章
  136. 00:37:09.519                             : en:第 07 章
  137. 00:46:16.899                             : en:第 08 章
  138. 00:49:42.855                             : en:第 09 章
  139. 00:55:01.381                             : en:第 10 章
  140. 00:59:19.473                             : en:第 11 章
  141. 01:04:09.721                             : en:第 12 章
  142. 01:13:17.560                             : en:第 13 章
  143. 01:17:44.326                             : en:第 14 章
  144. 01:22:40.914                             : en:第 15 章
  145. 01:30:11.156                             : en:第 16 章
复制代码

















保举请利用qBittorrent,utorrent,transmission等标准BT软件下载!以获得最快速度。奉求保种!





回复

使用道具 举报

蓝光币
60
发表于 2022-7-31 07:56:37 | 显示全部楼层
6666666666666666666666666666666
回复 支持 反对

使用道具 举报

蓝光币
476
发表于 2022-7-31 09:27:55 | 显示全部楼层

楼主太厉害了!楼主,电影应该很好看我觉得蓝光电影网真是个好地方!
回复 支持 反对

使用道具 举报

蓝光币
215
发表于 2022-7-31 15:44:41 | 显示全部楼层

其实我一直觉得楼主的品味不错!呵呵!蓝光电影网太棒了!
回复 支持 反对

使用道具 举报

蓝光币
100
发表于 2022-8-1 20:36:47 | 显示全部楼层
支持一下发布全景声电影。
回复 支持 反对

使用道具 举报

懒得打字嘛,点击右侧快捷回复 【右侧内容,后台自定义】
您需要登录后才可以回帖 登录 | 立即加入

本版积分规则

Archiver|小黑屋| 蓝光电影网 |网站地图

Copyright © 2021 Comsenz Inc. Powered by 蓝光电影网

蓝光电影网

本站内容由用户自主分享和转载自互联网,转载目的在于传递更多信息,并不代表本网赞同其观点和对其真实性负责。

如有侵权、违反国家法律政策行为,请联系我们,我们会第一时间及时清除和处理!

举报反馈邮箱:[email protected]

快速回复 返回顶部 返回列表