找回密码

蓝光电影网

查看: 71|回复: 0

[剧情] 斯宾塞[简繁英字幕].Spencer.2021.1080p.BluRay.DTS.x264-TAGHD 9.88GB

[复制链接]
蓝光币
7
发表于 2022-7-31 02:00:58 | 显示全部楼层 |阅读模式


◎标  题 斯宾塞
◎译  名 斯潘塞 / 黛妃(台) / 史宾沙(港) / 史宾赛(台)
◎片  名 Spencer
◎年  代 2021
◎产  地 英国 / 德国 / 美国 / 智利
◎类  别 剧情 / 列传
◎语  言 英语
◎上映日期 2021-09-03(威尼斯电影节) / 2021-11-05(美国)
◎IMDb评分 6.9/10 (20911人评价)
◎IMDb链接 https://www.imdb.com/title/tt12536294/
◎豆瓣评分 6.6/10 (11757人评价)
◎豆瓣链接 https://movie.douban.com/subject/35101435/
◎片  长 117分钟
◎导  演 帕布罗·拉雷恩 Pablo Larraín
◎编  剧 斯蒂文·奈特 Steven Knight
◎演  员 克里斯汀·斯图尔特 Kristen Stewart
       蒂莫西·斯波 Timothy Spall
       杰克·法辛 Jack Farthing
       西恩·哈里斯 Sean Harris
       莎莉·霍金斯 Sally Hawkins
       杰克·尼伦 Jack Nielen
       弗雷迪·斯普里 Freddie Spry
       斯特拉·古奈特 Stella Gonet
       理查德·塞梅尔 Richard Sammel
       伊丽莎白·贝林顿 Elizabeth Berrington
       艾米·曼森 Amy Manson
       詹姆斯·哈克尼斯 James Harkness
       劳拉·本森 Laura Benson
       约翰·基奥 John Keogh
       米迦勒·埃普 Michael Epp
       Ian Ashpitel Ian Ashpitel
       强尼·格林伍德 Jonny Greenwood
       克莱尔·马松 Claire Mathon
       盖·亨德里克斯·戴斯 Guy Hendrix Dyas
       杰奎琳·杜兰 Jacqueline Durran
◎标  签 英国 / 列传 / 2021 / 女性 / 王室 / 剧情 / 历史 / 婚姻
◎简  介
  报告1990年月早期关键性的一个周末,戴安娜下了决心:她跟查尔斯王子的婚姻不会有好成果,必须背叛那条“皇后预备役”的门路。影片故事发生在3天内,圣诞沐日时代的桑德灵汉姆庄园。
  1. ##### MediaInfo ######
  2. General
  3. Unique ID                                : 144756597473398309300094266529180485461 (0x6CE71B485031ABF6790C710EC0530755)
  4. Complete name                            : Spencer.2021.1080p.BluRay.DTS.x264-TAGHD.mkv
  5. Format                                   : Matroska
  6. Format version                           : Version 4
  7. File size                                : 9.88 GiB
  8. Duration                                 : 1 h 56 min
  9. Overall bit rate                         : 12.1 Mb/s
  10. Encoded date                             : UTC 2022-05-17 12:15:23
  11. Writing application                      : mkvmerge v42.0.0 ('Overtime') 64-bit
  12. Writing library                          : libebml v1.3.10 + libmatroska v1.5.2
  13. Video
  14. ID                                       : 1
  15. Format                                   : AVC
  16. Format/Info                              : Advanced Video Codec
  17. Format profile                           : [email protected]
  18. Format settings                          : CABAC / 4 Ref Frames
  19. Format settings, CABAC                   : Yes
  20. Format settings, Reference frames        : 4 frames
  21. Codec ID                                 : V_MPEG4/ISO/AVC
  22. Duration                                 : 1 h 56 min
  23. Bit rate                                 : 10.6 Mb/s
  24. Width                                    : 1 800 pixels
  25. Height                                   : 1 080 pixels
  26. Display aspect ratio                     : 5:3
  27. Frame rate mode                          : Constant
  28. Frame rate                               : 23.976 (24000/1001/53875) FPS
  29. Color space                              : YUV
  30. Chroma subsampling                       : 4:2:0
  31. Bit depth                                : 8 bits
  32. Scan type                                : Progressive
  33. Bits/(Pixel*Frame)                       : 0.227
  34. Stream size                              : 8.62 GiB (87%)
  35. Writing library                          : x264 core 142 r2431+42 c69a006 tMod [[email protected]:2:0 X86_64]
  36. Encoding settings                        : cabac=1 / ref=4 / deblock=1:-3:-3 / analyse=0x3:0x113 / me=umh / subme=11 / psy=1 / fade_compensate=0.00 / psy_rd=1.05:0.00 / mixed_ref=1 / me_range=32 / chroma_me=1 / trellis=2 / 8x8dct=1 / cqm=0 / deadzone=21,11 / fast_pskip=0 / chroma_qp_offset=-2 / threads=24 / lookahead_threads=4 / sliced_threads=0 / nr=0 / decimate=0 / interlaced=0 / NTM4NzU= / bluray_compat=0 / constrained_intra=0 / fgo=0 / bframes=8 / b_pyramid=2 / b_adapt=2 / b_bias=0 / direct=3 / weightb=1 / open_gop=0 / weightp=2 / keyint=250 / keyint_min=23 / NTM4NzU=uuDQuD2mJt9fsCf / scenecut=40 / intra_refresh=0 / rc_lookahead=60 / rc=crf / mbtree=0 / crf=19.5000 / qcomp=0.60 / qpmin=0:0:0 / qpmax=69:69:69 / qpstep=4 / vbv_maxrate=62500 / vbv_bufsize=78125 / crf_max=0.0 / nal_hrd=none / filler=0 / NTM4NzU=LmsMAP37EqsCpk / ip_ratio=1.30 / pb_ratio=1.20 / aq=3:0.80 / aq-sensitivity=10.00 / aq-factor=1.00:1.00:1.00 / aq2=0 / aq3=0
  37. Default                                  : Yes
  38. Forced                                   : No
  39. Color range                              : Limited
  40. Color primaries                          : BT.709
  41. Transfer characteristics                 : BT.709
  42. Matrix coefficients                      : BT.709
  43. Audio
  44. ID                                       : 2
  45. Format                                   : DTS
  46. Format/Info                              : Digital Theater Systems
  47. Codec ID                                 : A_DTS
  48. Duration                                 : 1 h 56 min
  49. Bit rate mode                            : Constant
  50. Bit rate                                 : 1 509 kb/s
  51. Channel(s)                               : 6 channels
  52. Channel layout                           : C L R Ls Rs LFE
  53. Sampling rate                            : 48.0 kHz
  54. Frame rate                               : 93.750 FPS (512 SPF)
  55. Bit depth                                : 24 bits
  56. Compression mode                         : Lossy
  57. Stream size                              : 1.23 GiB (12%)
  58. Language                                 : English
  59. Default                                  : Yes
  60. Forced                                   : No
  61. Text #1
  62. ID                                       : 3
  63. Format                                   : PGS
  64. Muxing mode                              : zlib
  65. Codec ID                                 : S_HDMV/PGS
  66. Codec ID/Info                            : Picture based subtitle format used on BDs/HD-DVDs
  67. Duration                                 : 1 h 56 min
  68. Bit rate                                 : 21.7 kb/s
  69. Count of elements                        : 2912
  70. Stream size                              : 18.1 MiB (0%)
  71. Language                                 : English
  72. Default                                  : No
  73. Forced                                   : No
  74. Text #2
  75. ID                                       : 4
  76. Format                                   : PGS
  77. Muxing mode                              : zlib
  78. Codec ID                                 : S_HDMV/PGS
  79. Codec ID/Info                            : Picture based subtitle format used on BDs/HD-DVDs
  80. Duration                                 : 1 h 48 min
  81. Bit rate                                 : 23.3 kb/s
  82. Count of elements                        : 1982
  83. Stream size                              : 18.0 MiB (0%)
  84. Title                                    : CHS
  85. Language                                 : Chinese
  86. Default                                  : Yes
  87. Forced                                   : No
  88. Text #3
  89. ID                                       : 5
  90. Format                                   : PGS
  91. Muxing mode                              : zlib
  92. Codec ID                                 : S_HDMV/PGS
  93. Codec ID/Info                            : Picture based subtitle format used on BDs/HD-DVDs
  94. Duration                                 : 1 h 48 min
  95. Bit rate                                 : 23.7 kb/s
  96. Count of elements                        : 1982
  97. Stream size                              : 18.3 MiB (0%)
  98. Title                                    : CHT
  99. Language                                 : Chinese
  100. Default                                  : No
  101. Forced                                   : No
  102. Menu
  103. 00:00:00.000                             : en:第 01 章
  104. 00:05:44.928                             : en:第 02 章
  105. 00:13:40.111                             : en:第 03 章
  106. 00:30:25.115                             : en:第 04 章
  107. 00:44:10.857                             : en:第 05 章
  108. 00:57:36.995                             : en:第 06 章
  109. 01:08:41.576                             : en:第 07 章
  110. 01:21:19.249                             : en:第 08 章
  111. 01:33:11.628                             : en:第 09 章
  112. 01:38:46.087                             : en:第 10 章
  113. 01:45:46.757                             : en:第 11 章
  114. 01:50:16.527                             : en:第 12 章
复制代码

















保举请利用qBittorrent,utorrent,transmission等标准BT软件下载!以获得最快速度。奉求保种!





回复

使用道具 举报

懒得打字嘛,点击右侧快捷回复 【右侧内容,后台自定义】
您需要登录后才可以回帖 登录 | 立即加入

本版积分规则

Archiver|小黑屋| 蓝光电影网 |网站地图

Copyright © 2021 Comsenz Inc. Powered by 蓝光电影网

蓝光电影网

本站内容由用户自主分享和转载自互联网,转载目的在于传递更多信息,并不代表本网赞同其观点和对其真实性负责。

如有侵权、违反国家法律政策行为,请联系我们,我们会第一时间及时清除和处理!

举报反馈邮箱:[email protected]

快速回复 返回顶部 返回列表