找回密码

蓝光电影网

查看: 47|回复: 1

[剧情] 公交车上的男人 Man.on.a.Bus.1955.1080p.BluRay.x264-BiPOLAR 2.04GB

[复制链接]
蓝光币
886
发表于 2022-7-31 08:54:49 | 显示全部楼层 |阅读模式


◎标  题 公交车上的汉子
◎片  名 Man on a Bus
◎年  代 1955
◎产  地 美国
◎类  别 剧情 / 短片
◎语  言 英语
◎IMDb评分 5.2/10 (34人评价)
◎IMDb链接 https://www.imdb.com/title/tt0183487/
◎豆瓣链接 https://movie.douban.com/subject/35190127/
◎片  长 28分钟
◎导  演 约瑟夫·刘易斯 Joseph H. Lewis
◎编  剧 斯蒂芬·朗斯特里特 Stephen Longstreet
◎演  员 布罗德里克·克劳福德 Broderick Crawford
       露丝·罗曼 Ruth Roman
       卡罗尔·耐什 J. Carrol Naish
       沃尔特·布伦南 Walter Brennan
       罗斯玛丽·德坎普 Rosemary DeCamp
       Kim Charney Kim Charney
       皮特·里德斯 Peter Leeds
       多萝西·诺伊曼 Dorothy Neumann
       罗伯特·迪克斯 Robert Dix
       Eda Reiss Merin Eda Reiss Merin
       David Leonard David Leonard
       理查德·黑尔 Richard Hale
       约翰奎尔伦 John Qualen
       彼得·布罗科 Peter Brocco
       保罗·布亚尔 Paul Bryar
       亨利·柯登 Henry Corden
       Charles Regan Charles Regan
◎简  介

  Six people who have emigrated to Israel from different countries are all on a bus traveling through the Negev Desert. They find themselves stranded overnight in the bus. To pass the time, each begins to tell the story behind their emigration to Israel.
  1. Video
  2. ID                                       : 1
  3. Format                                   : AVC
  4. Format/Info                              : Advanced Video Codec
  5. Format profile                           : [email protected]
  6. Format settings                          : CABAC / 5 Ref Frames
  7. Format settings, CABAC                   : Yes
  8. Format settings, Reference frames        : 5 frames
  9. Codec ID                                 : V_MPEG4/ISO/AVC
  10. Duration                                 : 28 min 53 s
  11. Bit rate                                 : 9 918 kb/s
  12. Width                                    : 1 508 pixels
  13. Height                                   : 1 080 pixels
  14. Display aspect ratio                     : 1.396
  15. Frame rate mode                          : Constant
  16. Frame rate                               : 23.976 (24000/1001/189150) FPS
  17. Color space                              : YUV
  18. Chroma subsampling                       : 4:2:0
  19. Bit depth                                : 8 bits
  20. Scan type                                : Progressive
  21. Bits/(Pixel*Frame)                       : 0.254
  22. Stream size                              : 2.00 GiB (98%)
  23. Writing library                          : x264 core 164 r3095 baee400
  24. Encoding settings                        : cabac=1 / ref=5 / deblock=1:-3:-3 / analyse=0x3:0x133 / me=umh / subme=10 / psy=1 / psy_rd=1.00:0.15 / mixed_ref=1 / me_range=24 / chroma_me=1 / trellis=2 / 8x8dct=1 / cqm=0 / deadzone=21,11 / fast_pskip=1 / chroma_qp_offset=-3 / threads=18 / lookahead_threads=3 / sliced_threads=0 / nr=0 / decimate=1 / interlaced=0 / bluray_compat=0 / constrained_intra=0 / bframes=8 / b_pyramid=2 / b_adapt=2 / b_bias=0 / direct=3 / weightb=1 / open_gop=0 / weightp=2 / keyint=250 / keyint_min=23 / scenecut=40 / intra_refresh=0 / rc_lookahead=60 / rc=crf / mbtree=1 / crf=21.5 / qcomp=0.60 / qpmin=0 / qpmax=69 / qpstep=4 / ip_ratio=1.40 / aq=3:0.50
  25. Language                                 : English
  26. Default                                  : Yes
  27. Forced                                   : No
  28. Color range                              : Limited
  29. Matrix coefficients                      : BT.709

  30. Audio
  31. ID                                       : 2
  32. Format                                   : AC-3
  33. Format/Info                              : Audio Coding 3
  34. Commercial name                          : Dolby Digital
  35. Codec ID                                 : A_AC3
  36. Duration                                 : 28 min 52 s
  37. Bit rate mode                            : Constant
  38. Bit rate                                 : 192 kb/s
  39. Channel(s)                               : 1 channel
  40. Channel layout                           : C
  41. Sampling rate                            : 48.0 kHz
  42. Frame rate                               : 31.250 FPS (1536 SPF)
  43. Compression mode                         : Lossy
  44. Stream size                              : 39.7 MiB (2%)
  45. Language                                 : English
  46. Service kind                             : Complete Main
  47. Default                                  : Yes
  48. Forced                                   : No

  49. Text #1
  50. ID                                       : 3
  51. Format                                   : UTF-8
  52. Codec ID                                 : S_TEXT/UTF8
  53. Codec ID/Info                            : UTF-8 Plain Text
  54. Duration                                 : 28 min 26 s
  55. Bit rate                                 : 66 b/s
  56. Count of elements                        : 376
  57. Stream size                              : 13.9 KiB (0%)
  58. Title                                    : English
  59. Language                                 : English
  60. Default                                  : No
  61. Forced                                   : No

  62. Text #2
  63. ID                                       : 4
  64. Format                                   : UTF-8
  65. Codec ID                                 : S_TEXT/UTF8
  66. Codec ID/Info                            : UTF-8 Plain Text
  67. Duration                                 : 28 min 26 s
  68. Bit rate                                 : 68 b/s
  69. Count of elements                        : 391
  70. Stream size                              : 14.3 KiB (0%)
  71. Title                                    : English SDH
  72. Language                                 : English
  73. Default                                  : No
  74. Forced                                   : No

  75. Text #3
  76. ID                                       : 5
  77. Format                                   : PGS
  78. Muxing mode                              : zlib
  79. Codec ID                                 : S_HDMV/PGS
  80. Codec ID/Info                            : Picture based subtitle format used on BDs/HD-DVDs
  81. Duration                                 : 28 min 26 s
  82. Bit rate                                 : 15.9 kb/s
  83. Count of elements                        : 782
  84. Stream size                              : 3.23 MiB (0%)
  85. Title                                    : English SDH
  86. Language                                 : English
  87. Default                                  : No
  88. Forced                                   : No

  89. Menu
  90. 00:00:00.000                             : en:00:00:00.000
  91. 00:01:56.241                             : en:00:01:56.241
  92. 00:08:29.634                             : en:00:08:29.634
  93. 00:15:04.654                             : en:00:15:04.654
  94. 00:21:56.232                             : en:00:21:56.232
复制代码





                                       
                                       

                                       
                                       
                                       




回复

使用道具 举报

蓝光币
13
发表于 2022-8-1 14:14:24 | 显示全部楼层

这个帖子不回对不起自己!我想我是一天也不能离开蓝光电影网。
回复 支持 反对

使用道具 举报

懒得打字嘛,点击右侧快捷回复 【右侧内容,后台自定义】
您需要登录后才可以回帖 登录 | 立即加入

本版积分规则

Archiver|小黑屋| 蓝光电影网 |网站地图

Copyright © 2021 Comsenz Inc. Powered by 蓝光电影网

蓝光电影网

本站内容由用户自主分享和转载自互联网,转载目的在于传递更多信息,并不代表本网赞同其观点和对其真实性负责。

如有侵权、违反国家法律政策行为,请联系我们,我们会第一时间及时清除和处理!

举报反馈邮箱:[email protected]

快速回复 返回顶部 返回列表