找回密码

蓝光电影网

查看: 19|回复: 1

[喜剧] 音乐盒 The.Music.Box.1932.720p.BluRay.x264-BiPOLAR 1.01GB

[复制链接]
蓝光币
886
发表于 2022-7-31 09:31:12 | 显示全部楼层 |阅读模式


◎标  题 音乐盒
◎片  名 The Music Box
◎年  代 1932
◎产  地 美国
◎类  别 笑剧 / 短片
◎语  言 英语
◎上映日期 1932-04-16
◎IMDb评分 8/10 (7402人评价)
◎IMDb链接 https://www.imdb.com/title/tt0023251/
◎豆瓣评分 6.8/10 (166人评价)
◎豆瓣链接 https://movie.douban.com/subject/2980759/
◎片  长 29 分钟
◎导  演 詹姆斯·帕罗特 James Parrott
◎编  剧 H.M. 沃克 H.M. Walker
◎演  员 斯坦·劳莱 Stan Laurel
       奥列佛·哈台 Oliver Hardy
       Gladys Gale Gladys Gale
       William Gillespie William Gillespie
       比利·吉尔伯特 Billy Gilbert
       Lilyan Irene Lilyan Irene
       Sam Lufkin Sam Lufkin
       查理·霍尔 Charlie Hall
       哈尔·罗奇 Hal Roach
       马文·哈特利 Marvin Hatley
       Harry Graham Harry Graham
       Walter Lundin Walter Lundin
       伦·鲍威斯 Len Powers
       Richard C. Currier Richard C. Currier
◎简  介

  1932年奥斯卡最好短片,报告了两个工人送给钢琴的故事
  1. Video
  2. ID                                       : 1
  3. Format                                   : AVC
  4. Format/Info                              : Advanced Video Codec
  5. Format profile                           : [email protected]
  6. Format settings                          : CABAC / 12 Ref Frames
  7. Format settings, CABAC                   : Yes
  8. Format settings, Reference frames        : 12 frames
  9. Codec ID                                 : V_MPEG4/ISO/AVC
  10. Duration                                 : 39 min 27 s
  11. Bit rate                                 : 3 146 kb/s
  12. Width                                    : 946 pixels
  13. Height                                   : 720 pixels
  14. Display aspect ratio                     : 4:3
  15. Frame rate mode                          : Constant
  16. Frame rate                               : 23.976 (24000/1001/189150) FPS
  17. Color space                              : YUV
  18. Chroma subsampling                       : 4:2:0
  19. Bit depth                                : 8 bits
  20. Scan type                                : Progressive
  21. Bits/(Pixel*Frame)                       : 0.193
  22. Stream size                              : 888 MiB (85%)
  23. Writing library                          : x264 core 164 r3094 bfc87b7
  24. Encoding settings                        : cabac=1 / ref=12 / deblock=1:-3:-3 / analyse=0x3:0x133 / me=umh / subme=10 / psy=1 / psy_rd=1.00:0.15 / mixed_ref=1 / me_range=24 / chroma_me=1 / trellis=2 / 8x8dct=1 / cqm=0 / deadzone=21,11 / fast_pskip=1 / chroma_qp_offset=-3 / threads=18 / lookahead_threads=3 / sliced_threads=0 / nr=0 / decimate=1 / interlaced=0 / bluray_compat=0 / constrained_intra=0 / bframes=8 / b_pyramid=2 / b_adapt=2 / b_bias=0 / direct=3 / weightb=1 / open_gop=0 / weightp=2 / keyint=250 / keyint_min=23 / scenecut=40 / intra_refresh=0 / rc_lookahead=60 / rc=crf / mbtree=1 / crf=17.0 / qcomp=0.60 / qpmin=0 / qpmax=69 / qpstep=4 / ip_ratio=1.40 / aq=3:0.50
  25. Language                                 : English
  26. Default                                  : Yes
  27. Forced                                   : No
  28. Color range                              : Limited
  29. Matrix coefficients                      : BT.709

  30. Audio #1
  31. ID                                       : 2
  32. Format                                   : AC-3
  33. Format/Info                              : Audio Coding 3
  34. Commercial name                          : Dolby Digital
  35. Codec ID                                 : A_AC3
  36. Duration                                 : 39 min 27 s
  37. Bit rate mode                            : Constant
  38. Bit rate                                 : 448 kb/s
  39. Channel(s)                               : 2 channels
  40. Channel layout                           : L R
  41. Sampling rate                            : 48.0 kHz
  42. Frame rate                               : 31.250 FPS (1536 SPF)
  43. Compression mode                         : Lossy
  44. Stream size                              : 126 MiB (12%)
  45. Language                                 : English
  46. Service kind                             : Complete Main
  47. Default                                  : Yes
  48. Forced                                   : No

  49. Audio #2
  50. ID                                       : 3
  51. Format                                   : AAC LC
  52. Format/Info                              : Advanced Audio Codec Low Complexity
  53. Codec ID                                 : A_AAC-2
  54. Duration                                 : 39 min 27 s
  55. Bit rate                                 : 78.2 kb/s
  56. Channel(s)                               : 2 channels
  57. Channel layout                           : L R
  58. Sampling rate                            : 48.0 kHz
  59. Frame rate                               : 46.875 FPS (1024 SPF)
  60. Compression mode                         : Lossy
  61. Delay relative to video                  : 9 ms
  62. Stream size                              : 22.1 MiB (2%)
  63. Title                                    : English Commentary by Richard Bann
  64. Language                                 : English
  65. Default                                  : No
  66. Forced                                   : No

  67. Text #1
  68. ID                                       : 4
  69. Format                                   : UTF-8
  70. Codec ID                                 : S_TEXT/UTF8
  71. Codec ID/Info                            : UTF-8 Plain Text
  72. Duration                                 : 28 min 10 s
  73. Bit rate                                 : 24 b/s
  74. Count of elements                        : 178
  75. Stream size                              : 5.09 KiB (0%)
  76. Title                                    : English
  77. Language                                 : English
  78. Default                                  : No
  79. Forced                                   : No

  80. Text #2
  81. ID                                       : 5
  82. Format                                   : UTF-8
  83. Codec ID                                 : S_TEXT/UTF8
  84. Codec ID/Info                            : UTF-8 Plain Text
  85. Duration                                 : 29 min 6 s
  86. Bit rate                                 : 30 b/s
  87. Count of elements                        : 253
  88. Stream size                              : 6.57 KiB (0%)
  89. Title                                    : English SDH
  90. Language                                 : English
  91. Default                                  : No
  92. Forced                                   : No

  93. Text #3
  94. ID                                       : 6
  95. Format                                   : PGS
  96. Muxing mode                              : zlib
  97. Codec ID                                 : S_HDMV/PGS
  98. Codec ID/Info                            : Picture based subtitle format used on BDs/HD-DVDs
  99. Duration                                 : 29 min 6 s
  100. Bit rate                                 : 7 679 b/s
  101. Count of elements                        : 526
  102. Stream size                              : 1.60 MiB (0%)
  103. Title                                    : English SDH
  104. Language                                 : English
  105. Default                                  : No
  106. Forced                                   : No

  107. Menu
  108. 00:00:00.000                             : en:00:00:00.000
  109. 00:29:14.586                             : en:00:29:14.586
复制代码





                                       
                                       

                                       
                                       
                                       




回复

使用道具 举报

蓝光币
169
发表于 2022-8-2 19:51:17 | 显示全部楼层
楼主发贴辛苦了,谢谢楼主分享!我觉得蓝光电影网是注册对了!
回复 支持 反对

使用道具 举报

懒得打字嘛,点击右侧快捷回复 【右侧内容,后台自定义】
您需要登录后才可以回帖 登录 | 立即加入

本版积分规则

Archiver|小黑屋| 蓝光电影网 |网站地图

Copyright © 2021 Comsenz Inc. Powered by 蓝光电影网

蓝光电影网

本站内容由用户自主分享和转载自互联网,转载目的在于传递更多信息,并不代表本网赞同其观点和对其真实性负责。

如有侵权、违反国家法律政策行为,请联系我们,我们会第一时间及时清除和处理!

举报反馈邮箱:[email protected]

快速回复 返回顶部 返回列表