找回密码

蓝光电影网

查看: 19|回复: 1

[喜剧] 他们的第一个错误 Their.First.Mistake.1932.720p.BluRay.x264-BiPOLAR 537.72MB

[复制链接]
蓝光币
886
发表于 2022-7-31 09:29:35 | 显示全部楼层 |阅读模式


◎标  题 他们的第一个毛病
◎片  名 Their First Mistake
◎年  代 1932
◎产  地 美国
◎类  别 笑剧 / 短片
◎语  言 英语
◎上映日期 1932-11-05
◎IMDb评分 7.3/10 (1451人评价)
◎IMDb链接 https://www.imdb.com/title/tt0023578/
◎豆瓣链接 https://movie.douban.com/subject/10538028/
◎片  长 21分钟
◎导  演 乔治·马歇尔 George Marshall
       乔治·马歇尔 George Marshall
◎演  员 斯坦·劳莱 Stan Laurel
       奥列佛·哈台 Oliver Hardy
       梅·布希 Mae Busch
       比利·吉尔伯特 Billy Gilbert
  1. Video
  2. ID                                       : 1
  3. Format                                   : AVC
  4. Format/Info                              : Advanced Video Codec
  5. Format profile                           : [email protected]
  6. Format settings                          : CABAC / 12 Ref Frames
  7. Format settings, CABAC                   : Yes
  8. Format settings, Reference frames        : 12 frames
  9. Codec ID                                 : V_MPEG4/ISO/AVC
  10. Duration                                 : 21 min 4 s
  11. Bit rate                                 : 3 028 kb/s
  12. Width                                    : 960 pixels
  13. Height                                   : 720 pixels
  14. Display aspect ratio                     : 4:3
  15. Frame rate mode                          : Constant
  16. Frame rate                               : 23.976 (24000/1001/189150) FPS
  17. Color space                              : YUV
  18. Chroma subsampling                       : 4:2:0
  19. Bit depth                                : 8 bits
  20. Scan type                                : Progressive
  21. Bits/(Pixel*Frame)                       : 0.183
  22. Stream size                              : 456 MiB (85%)
  23. Writing library                          : x264 core 164 r3094 bfc87b7
  24. Encoding settings                        : cabac=1 / ref=12 / deblock=1:-3:-3 / analyse=0x3:0x133 / me=umh / subme=10 / psy=1 / psy_rd=1.00:0.15 / mixed_ref=1 / me_range=24 / chroma_me=1 / trellis=2 / 8x8dct=1 / cqm=0 / deadzone=21,11 / fast_pskip=1 / chroma_qp_offset=-3 / threads=18 / lookahead_threads=3 / sliced_threads=0 / nr=0 / decimate=1 / interlaced=0 / bluray_compat=0 / constrained_intra=0 / bframes=8 / b_pyramid=2 / b_adapt=2 / b_bias=0 / direct=3 / weightb=1 / open_gop=0 / weightp=2 / keyint=250 / keyint_min=23 / scenecut=40 / intra_refresh=0 / rc_lookahead=60 / rc=crf / mbtree=1 / crf=15.0 / qcomp=0.60 / qpmin=0 / qpmax=69 / qpstep=4 / ip_ratio=1.40 / aq=3:0.50
  25. Language                                 : English
  26. Default                                  : Yes
  27. Forced                                   : No
  28. Color range                              : Limited
  29. Matrix coefficients                      : BT.709

  30. Audio #1
  31. ID                                       : 2
  32. Format                                   : AC-3
  33. Format/Info                              : Audio Coding 3
  34. Commercial name                          : Dolby Digital
  35. Codec ID                                 : A_AC3
  36. Duration                                 : 21 min 4 s
  37. Bit rate mode                            : Constant
  38. Bit rate                                 : 448 kb/s
  39. Channel(s)                               : 2 channels
  40. Channel layout                           : L R
  41. Sampling rate                            : 48.0 kHz
  42. Frame rate                               : 31.250 FPS (1536 SPF)
  43. Compression mode                         : Lossy
  44. Stream size                              : 67.5 MiB (13%)
  45. Language                                 : English
  46. Service kind                             : Complete Main
  47. Default                                  : Yes
  48. Forced                                   : No

  49. Audio #2
  50. ID                                       : 3
  51. Format                                   : AAC LC
  52. Format/Info                              : Advanced Audio Codec Low Complexity
  53. Codec ID                                 : A_AAC-2
  54. Duration                                 : 21 min 4 s
  55. Bit rate                                 : 79.4 kb/s
  56. Channel(s)                               : 2 channels
  57. Channel layout                           : L R
  58. Sampling rate                            : 48.0 kHz
  59. Frame rate                               : 46.875 FPS (1024 SPF)
  60. Compression mode                         : Lossy
  61. Delay relative to video                  : 9 ms
  62. Stream size                              : 12.0 MiB (2%)
  63. Title                                    : English Commentary by Randy Skretvedt
  64. Language                                 : English
  65. Default                                  : No
  66. Forced                                   : No

  67. Text #1
  68. ID                                       : 4
  69. Format                                   : UTF-8
  70. Codec ID                                 : S_TEXT/UTF8
  71. Codec ID/Info                            : UTF-8 Plain Text
  72. Duration                                 : 19 min 58 s
  73. Bit rate                                 : 38 b/s
  74. Count of elements                        : 220
  75. Stream size                              : 5.65 KiB (0%)
  76. Title                                    : English
  77. Language                                 : English
  78. Default                                  : No
  79. Forced                                   : No

  80. Text #2
  81. ID                                       : 5
  82. Format                                   : UTF-8
  83. Codec ID                                 : S_TEXT/UTF8
  84. Codec ID/Info                            : UTF-8 Plain Text
  85. Duration                                 : 20 min 40 s
  86. Bit rate                                 : 42 b/s
  87. Count of elements                        : 271
  88. Stream size                              : 6.37 KiB (0%)
  89. Title                                    : English SDH
  90. Language                                 : English
  91. Default                                  : No
  92. Forced                                   : No

  93. Text #3
  94. ID                                       : 6
  95. Format                                   : PGS
  96. Muxing mode                              : zlib
  97. Codec ID                                 : S_HDMV/PGS
  98. Codec ID/Info                            : Picture based subtitle format used on BDs/HD-DVDs
  99. Duration                                 : 20 min 40 s
  100. Bit rate                                 : 10.5 kb/s
  101. Count of elements                        : 544
  102. Stream size                              : 1.55 MiB (0%)
  103. Title                                    : English SDH
  104. Language                                 : English
  105. Default                                  : No
  106. Forced                                   : No
复制代码






                                       
                                       

                                       
                                       
                                       




回复

使用道具 举报

蓝光币
0
发表于 6 天前 | 显示全部楼层
不知道好不好看~点进来试试!
回复 支持 反对

使用道具 举报

懒得打字嘛,点击右侧快捷回复 【右侧内容,后台自定义】
您需要登录后才可以回帖 登录 | 立即加入

本版积分规则

Archiver|小黑屋| 蓝光电影网 |网站地图

Copyright © 2021 Comsenz Inc. Powered by 蓝光电影网

蓝光电影网

本站内容由用户自主分享和转载自互联网,转载目的在于传递更多信息,并不代表本网赞同其观点和对其真实性负责。

如有侵权、违反国家法律政策行为,请联系我们,我们会第一时间及时清除和处理!

举报反馈邮箱:[email protected]

快速回复 返回顶部 返回列表