找回密码

蓝光电影网

查看: 33|回复: 0

[剧情] 渺小的死亡 Small.Deaths.1996.720p.BluRay.x264-BiPOLAR 519.34MB

[复制链接]
蓝光币
886
发表于 2022-7-31 09:33:36 | 显示全部楼层 |阅读模式


◎标  题 渺小的灭亡
◎片  名 Small Deaths
◎年  代 1996
◎产  地 英国
◎类  别 剧情 / 短片
◎语  言 英语
◎上映日期 2000-10-07
◎IMDb评分 6.8/10 (879人评价)
◎IMDb链接 https://www.imdb.com/title/tt0232660/
◎豆瓣评分 7.6/10 (430人评价)
◎豆瓣链接 https://movie.douban.com/subject/1441822/
◎片  长 11分钟
◎导  演 琳恩·拉姆塞 Lynne Ramsay
◎编  剧 琳恩·拉姆塞 Lynne Ramsay
◎演  员 James Ramsay James Ramsay
       琳恩·拉姆塞 Lynne Ramsay
       Alwin H. Kuchler Alwin H. Kuchler
       Lucia Zucchetti Lucia Zucchetti
◎简  介

  Captures three occurrences in a young girl's life that leave her with a heavy heart.
  1. Video
  2. ID                                       : 1
  3. Format                                   : AVC
  4. Format/Info                              : Advanced Video Codec
  5. Format profile                           : [email protected]
  6. Format settings                          : CABAC / 12 Ref Frames
  7. Format settings, CABAC                   : Yes
  8. Format settings, Reference frames        : 12 frames
  9. Codec ID                                 : V_MPEG4/ISO/AVC
  10. Duration                                 : 11 min 13 s
  11. Bit rate                                 : 6 278 kb/s
  12. Width                                    : 960 pixels
  13. Height                                   : 720 pixels
  14. Display aspect ratio                     : 4:3
  15. Frame rate mode                          : Constant
  16. Frame rate                               : 23.976 (24000/1001/189150) FPS
  17. Color space                              : YUV
  18. Chroma subsampling                       : 4:2:0
  19. Bit depth                                : 8 bits
  20. Scan type                                : Progressive
  21. Bits/(Pixel*Frame)                       : 0.379
  22. Stream size                              : 504 MiB (97%)
  23. Writing library                          : x264 core 164 r3095 baee400
  24. Encoding settings                        : cabac=1 / ref=12 / deblock=1:-3:-3 / analyse=0x3:0x133 / me=umh / subme=10 / psy=1 / psy_rd=1.00:0.15 / mixed_ref=1 / me_range=24 / chroma_me=1 / trellis=2 / 8x8dct=1 / cqm=0 / deadzone=21,11 / fast_pskip=1 / chroma_qp_offset=-3 / threads=18 / lookahead_threads=3 / sliced_threads=0 / nr=0 / decimate=1 / interlaced=0 / bluray_compat=0 / constrained_intra=0 / bframes=8 / b_pyramid=2 / b_adapt=2 / b_bias=0 / direct=3 / weightb=1 / open_gop=0 / weightp=2 / keyint=250 / keyint_min=23 / scenecut=40 / intra_refresh=0 / rc_lookahead=60 / rc=crf / mbtree=1 / crf=17.0 / qcomp=0.60 / qpmin=0 / qpmax=69 / qpstep=4 / ip_ratio=1.40 / aq=3:0.50
  25. Language                                 : English
  26. Default                                  : Yes
  27. Forced                                   : No

  28. Audio
  29. ID                                       : 2
  30. Format                                   : AC-3
  31. Format/Info                              : Audio Coding 3
  32. Commercial name                          : Dolby Digital
  33. Codec ID                                 : A_AC3
  34. Duration                                 : 11 min 13 s
  35. Bit rate mode                            : Constant
  36. Bit rate                                 : 192 kb/s
  37. Channel(s)                               : 1 channel
  38. Channel layout                           : C
  39. Sampling rate                            : 48.0 kHz
  40. Frame rate                               : 31.250 FPS (1536 SPF)
  41. Compression mode                         : Lossy
  42. Stream size                              : 15.4 MiB (3%)
  43. Language                                 : English
  44. Service kind                             : Complete Main
  45. Default                                  : Yes
  46. Forced                                   : No

  47. Text
  48. ID                                       : 3
  49. Format                                   : UTF-8
  50. Codec ID                                 : S_TEXT/UTF8
  51. Codec ID/Info                            : UTF-8 Plain Text
  52. Duration                                 : 9 min 39 s
  53. Bit rate                                 : 22 b/s
  54. Count of elements                        : 58
  55. Stream size                              : 1.59 KiB (0%)
  56. Title                                    : English
  57. Language                                 : English
  58. Default                                  : No
  59. Forced                                   : No
复制代码





                                       
                                       

                                       
                                       
                                       




回复

使用道具 举报

懒得打字嘛,点击右侧快捷回复 【右侧内容,后台自定义】
您需要登录后才可以回帖 登录 | 立即加入

本版积分规则

Archiver|小黑屋| 蓝光电影网 |网站地图

Copyright © 2021 Comsenz Inc. Powered by 蓝光电影网

蓝光电影网

本站内容由用户自主分享和转载自互联网,转载目的在于传递更多信息,并不代表本网赞同其观点和对其真实性负责。

如有侵权、违反国家法律政策行为,请联系我们,我们会第一时间及时清除和处理!

举报反馈邮箱:[email protected]

快速回复 返回顶部 返回列表