找回密码

蓝光电影网

查看: 57|回复: 0

[喜剧] 怪兽岛 Mystery.on.Monster.Island.1981.SPANISH.1080p.BluRay.x264.FLAC.1.0-HANDJOB 8.10GB

[复制链接]
蓝光币
894
发表于 2022-7-31 09:44:47 | 显示全部楼层 |阅读模式


◎标  题 怪兽岛
◎译  名 Misterio en la isla de los monstruos / Mistery monster island
◎片  名 Monster Island
◎年  代 1981
◎产  地 西班牙 / 美国
◎类  别 笑剧 / 科幻 / 可骇 / 冒险
◎语  言 英语 / 西班牙语
◎上映日期 1981-04-03
◎IMDb评分 3.7/10 (950人评价)
◎IMDb链接 https://www.imdb.com/title/tt0082769/
◎豆瓣链接 https://movie.douban.com/subject/2081273/
◎片  长 100 分钟
◎导  演 胡安·皮克尔·西蒙 Juan Piquer Simón
◎编  剧 儒勒·凡尔纳 Jules Verne
       胡安·皮克尔·西蒙 Juan Piquer Simón
◎演  员 特伦斯·斯坦普 Terence Stamp
       丹尼尔·马汀 Daniel Martín
       保罗·纳什 Paul Naschy
       Luis Barboo Luis Barboo
       弗兰克·布拉尼亚 Frank Braña
       Ana Obregón Ana Obregón
       彼得·库欣 Peter Cushing
       胡安·皮克尔·西蒙 Juan Piquer Simón
       Gumersindo Andrés Gumersindo Andrés
       Emilio Ruiz del Río Emilio Ruiz del Río
       Emilio Ruiz del Río Emilio Ruiz del Río
◎简  介

  A young European boy living in San Francisco is reluctant to marry his long-term girlfriend because he wants to travel around the world first. His wealthy uncle agrees to send him on a global expedition aboard his ship, but en route the boy and his travelling companion are shipwrecked on a remote island, populated by countless prehistoric creatures as well as gold-hunting bandi...
  1. Video
  2. ID                                       : 1
  3. Format                                   : AVC
  4. Format/Info                              : Advanced Video Codec
  5. Format profile                           : [email protected]
  6. Format settings                          : CABAC / 4 Ref Frames
  7. Format settings, CABAC                   : Yes
  8. Format settings, Reference frames        : 4 frames
  9. Codec ID                                 : V_MPEG4/ISO/AVC
  10. Duration                                 : 1 h 44 min
  11. Bit rate                                 : 10.4 Mb/s
  12. Width                                    : 1 794 pixels
  13. Height                                   : 1 078 pixels
  14. Display aspect ratio                     : 5:3
  15. Frame rate mode                          : Constant
  16. Frame rate                               : 23.976 (24000/1001/189150) FPS
  17. Color space                              : YUV
  18. Chroma subsampling                       : 4:2:0
  19. Bit depth                                : 8 bits
  20. Scan type                                : Progressive
  21. Bits/(Pixel*Frame)                       : 0.224
  22. Stream size                              : 7.59 GiB (94%)
  23. Writing library                          : x264 core 164 r3065 ae03d92
  24. Encoding settings                        : cabac=1 / ref=4 / deblock=1:-3:-3 / analyse=0x3:0x133 / me=umh / subme=10 / psy=1 / psy_rd=1.00:0.00 / mixed_ref=1 / me_range=32 / chroma_me=1 / trellis=2 / 8x8dct=1 / cqm=0 / deadzone=21,11 / fast_pskip=0 / chroma_qp_offset=-2 / threads=18 / lookahead_threads=4 / sliced_threads=0 / nr=0 / decimate=0 / interlaced=0 / bluray_compat=0 / constrained_intra=0 / bframes=16 / b_pyramid=2 / b_adapt=2 / b_bias=0 / direct=3 / weightb=1 / open_gop=0 / weightp=2 / keyint=240 / keyint_min=24 / scenecut=40 / intra_refresh=0 / rc_lookahead=60 / rc=crf / mbtree=0 / crf=21.0 / qcomp=0.60 / qpmin=0 / qpmax=69 / qpstep=4 / vbv_maxrate=62500 / vbv_bufsize=78125 / crf_max=0.0 / nal_hrd=none / filler=0 / ip_ratio=1.40 / pb_ratio=1.30 / aq=2:1.00
  25. Default                                  : Yes
  26. Forced                                   : No
  27. Color range                              : Limited
  28. Color primaries                          : BT.709
  29. Transfer characteristics                 : BT.709
  30. Matrix coefficients                      : BT.709
  31. Audio #1
  32. ID                                       : 2
  33. Format                                   : FLAC
  34. Format/Info                              : Free Lossless Audio Codec
  35. Codec ID                                 : A_FLAC
  36. Duration                                 : 1 h 44 min
  37. Bit rate mode                            : Variable
  38. Bit rate                                 : 346 kb/s
  39. Channel(s)                               : 1 channel
  40. Channel layout                           : C
  41. Sampling rate                            : 48.0 kHz
  42. Frame rate                               : 11.719 FPS (4096 SPF)
  43. Bit depth                                : 16 bits
  44. Compression mode                         : Lossless
  45. Stream size                              : 259 MiB (3%)
  46. Writing library                          : libFLAC 1.2.1 (UTC 2007-09-17)
  47. Language                                 : Spanish
  48. Default                                  : Yes
  49. Forced                                   : No
  50. Audio #2
  51. ID                                       : 3
  52. Format                                   : FLAC
  53. Format/Info                              : Free Lossless Audio Codec
  54. Codec ID                                 : A_FLAC
  55. Duration                                 : 1 h 44 min
  56. Bit rate mode                            : Variable
  57. Bit rate                                 : 353 kb/s
  58. Channel(s)                               : 1 channel
  59. Channel layout                           : C
  60. Sampling rate                            : 48.0 kHz
  61. Frame rate                               : 11.719 FPS (4096 SPF)
  62. Bit depth                                : 16 bits
  63. Compression mode                         : Lossless
  64. Stream size                              : 264 MiB (3%)
  65. Title                                    : English Dub
  66. Writing library                          : libFLAC 1.2.1 (UTC 2007-09-17)
  67. Language                                 : English
  68. Default                                  : No
  69. Forced                                   : No
  70. Text #1
  71. ID                                       : 4
  72. Format                                   : UTF-8
  73. Codec ID                                 : S_TEXT/UTF8
  74. Codec ID/Info                            : UTF-8 Plain Text
  75. Duration                                 : 1 h 42 min
  76. Bit rate                                 : 39 b/s
  77. Frame rate                               : 0.148 FPS
  78. Count of elements                        : 906
  79. Stream size                              : 29.5 KiB (0%)
  80. Language                                 : English
  81. Default                                  : Yes
  82. Forced                                   : No
  83. Text #2
  84. ID                                       : 5
  85. Format                                   : PGS
  86. Muxing mode                              : zlib
  87. Codec ID                                 : S_HDMV/PGS
  88. Codec ID/Info                            : Picture based subtitle format used on BDs/HD-DVDs
  89. Duration                                 : 1 h 42 min
  90. Bit rate                                 : 16.9 kb/s
  91. Frame rate                               : 0.277 FPS
  92. Count of elements                        : 1709
  93. Stream size                              : 12.4 MiB (0%)
  94. Language                                 : Spanish
  95. Default                                  : No
  96. Forced                                   : No
  97. Menu
  98. 00:00:00.000                             : :Chapter 01
  99. 00:15:07.573                             : :Chapter 02
  100. 00:27:08.293                             : :Chapter 03
  101. 00:39:57.061                             : :Chapter 04
  102. 00:50:27.024                             : :Chapter 05
  103. 00:58:59.536                             : :Chapter 06
  104. 01:10:12.208                             : :Chapter 07
  105. 01:20:42.171                             : :Chapter 08
  106. 01:35:01.279                             : :Chapter 09
复制代码






                                       
                                       

                                       
                                       
                                       




回复

使用道具 举报

懒得打字嘛,点击右侧快捷回复 【右侧内容,后台自定义】
您需要登录后才可以回帖 登录 | 立即加入

本版积分规则

Archiver|小黑屋| 蓝光电影网 |网站地图

Copyright © 2021 Comsenz Inc. Powered by 蓝光电影网

蓝光电影网

本站内容由用户自主分享和转载自互联网,转载目的在于传递更多信息,并不代表本网赞同其观点和对其真实性负责。

如有侵权、违反国家法律政策行为,请联系我们,我们会第一时间及时清除和处理!

举报反馈邮箱:[email protected]

快速回复 返回顶部 返回列表