找回密码

蓝光电影网

查看: 117|回复: 0

[喜剧] 毒魔复仇 The.Toxic.Avenger.1984.EXTENDED.1080p.BluRay.x264-WATCHABLE 9.91GB

[复制链接]
蓝光币
1020
发表于 2022-7-31 09:44:09 | 显示全部楼层 |阅读模式


◎标  题 毒魔复仇
◎译  名 Health Club Horror (USA) (working title)
◎片  名 The Toxic Avenger
◎年  代 1984
◎产  地 美国
◎类  别 笑剧 / 行动 / 科幻 / 可骇
◎语  言 英语
◎上映日期 1986-04-11
◎IMDb评分 6.2/10 (27800人评价)
◎IMDb链接 https://www.imdb.com/title/tt0090190/
◎豆瓣评分 7.2/10 (812人评价)
◎豆瓣链接 https://movie.douban.com/subject/1299475/
◎片  长 87 分钟
◎导  演 洛伊德·考夫曼 Lloyd Kaufman
       迈克尔·赫兹 Michael Herz
◎编  剧 洛伊德·考夫曼 Lloyd Kaufman
◎演  员 多莉·霍尔 Dolly Hall
       Michael Russo Michael Russo
       马克·托格 Mark Torgl
       迈克尔·赫兹 Michael Herz
       Brian Katkin Brian Katkin
       詹妮弗·阿斯皮纳尔 Jennifer Aspinall
◎标  签 美国 / 可骇 / B级片 / cult / 笑剧 / TROMA / 美国电影 / Cult
◎简  介

  报告一个弱智的小伙子,他是健身中心的拖把清洁工,某天,他被玩弄,成了公共群体中的取乐笑柄,他不谨慎从楼上的玻璃窗摔了下来,意外地跌入了某种化学产业用处的废水里,身材遭到了严重辐射创伤,基因突变~ 成了半兽怪人,他决议要复仇,向社会恶势力宣战…
  1. Video
  2. ID                                       : 1
  3. Format                                   : AVC
  4. Format/Info                              : Advanced Video Codec
  5. Format profile                           : [email protected]
  6. Format settings                          : CABAC / 4 Ref Frames
  7. Format settings, CABAC                   : Yes
  8. Format settings, Reference frames        : 4 frames
  9. Codec ID                                 : V_MPEG4/ISO/AVC
  10. Duration                                 : 1 h 35 min
  11. Bit rate                                 : 14.3 Mb/s
  12. Width                                    : 1 920 pixels
  13. Height                                   : 1 080 pixels
  14. Display aspect ratio                     : 16:9
  15. Frame rate mode                          : Constant
  16. Frame rate                               : 23.976 (24000/1001/189150) FPS
  17. Color space                              : YUV
  18. Chroma subsampling                       : 4:2:0
  19. Bit depth                                : 8 bits
  20. Scan type                                : Progressive
  21. Bits/(Pixel*Frame)                       : 0.289
  22. Stream size                              : 9.55 GiB (96%)
  23. Writing library                          : x264 core 164 r3095 baee400
  24. Encoding settings                        : cabac=1 / ref=4 / deblock=1:-3:-3 / analyse=0x3:0x133 / me=umh / subme=9 / psy=1 / psy_rd=1.00:0.00 / mixed_ref=1 / me_range=16 / chroma_me=1 / trellis=2 / 8x8dct=1 / cqm=0 / deadzone=21,11 / fast_pskip=0 / chroma_qp_offset=-2 / threads=24 / lookahead_threads=2 / sliced_threads=0 / nr=0 / decimate=0 / interlaced=0 / bluray_compat=0 / constrained_intra=0 / bframes=3 / b_pyramid=2 / b_adapt=2 / b_bias=0 / direct=1 / weightb=1 / open_gop=0 / weightp=2 / keyint=240 / keyint_min=23 / scenecut=40 / intra_refresh=0 / rc_lookahead=60 / rc=crf / mbtree=0 / crf=21.5 / qcomp=0.60 / qpmin=0 / qpmax=69 / qpstep=4 / vbv_maxrate=62500 / vbv_bufsize=78125 / crf_max=0.0 / nal_hrd=none / filler=0 / ip_ratio=1.40 / pb_ratio=1.30 / aq=3:0.70
  25. Default                                  : Yes
  26. Forced                                   : No
  27. Color range                              : Limited
  28. Matrix coefficients                      : BT.709
  29. Audio #1
  30. ID                                       : 2
  31. Format                                   : FLAC
  32. Format/Info                              : Free Lossless Audio Codec
  33. Codec ID                                 : A_FLAC
  34. Duration                                 : 1 h 35 min
  35. Bit rate mode                            : Variable
  36. Bit rate                                 : 424 kb/s
  37. Channel(s)                               : 2 channels
  38. Channel layout                           : L R
  39. Sampling rate                            : 48.0 kHz
  40. Frame rate                               : 11.719 FPS (4096 SPF)
  41. Bit depth                                : 24 bits
  42. Detected bit depth                       : 17 bits
  43. Compression mode                         : Lossless
  44. Stream size                              : 289 MiB (3%)
  45. Writing library                          : libFLAC 1.3.3 (UTC 2019-08-04)
  46. Language                                 : English
  47. Default                                  : Yes
  48. Forced                                   : No
  49. Audio #2
  50. ID                                       : 3
  51. Format                                   : AAC LC
  52. Format/Info                              : Advanced Audio Codec Low Complexity
  53. Codec ID                                 : A_AAC-2
  54. Duration                                 : 1 h 35 min
  55. Bit rate                                 : 106 kb/s
  56. Channel(s)                               : 2 channels
  57. Channel layout                           : L R
  58. Sampling rate                            : 48.0 kHz
  59. Frame rate                               : 46.875 FPS (1024 SPF)
  60. Compression mode                         : Lossy
  61. Stream size                              : 72.5 MiB (1%)
  62. Title                                    : Commentary track
  63. Language                                 : English
  64. Default                                  : Yes
  65. Forced                                   : No
  66. Text #1
  67. ID                                       : 4
  68. Format                                   : PGS
  69. Muxing mode                              : zlib
  70. Codec ID                                 : S_HDMV/PGS
  71. Codec ID/Info                            : Picture based subtitle format used on BDs/HD-DVDs
  72. Duration                                 : 1 h 25 min
  73. Bit rate                                 : 895 b/s
  74. Frame rate                               : 0.009 FPS
  75. Count of elements                        : 45
  76. Stream size                              : 564 KiB (0%)
  77. Title                                    : German Forced Subtitles
  78. Language                                 : German
  79. Default                                  : No
  80. Forced                                   : No
  81. Text #2
  82. ID                                       : 5
  83. Format                                   : PGS
  84. Muxing mode                              : zlib
  85. Codec ID                                 : S_HDMV/PGS
  86. Codec ID/Info                            : Picture based subtitle format used on BDs/HD-DVDs
  87. Duration                                 : 1 h 32 min
  88. Bit rate                                 : 31.8 kb/s
  89. Frame rate                               : 0.348 FPS
  90. Count of elements                        : 1923
  91. Stream size                              : 21.0 MiB (0%)
  92. Title                                    : German Full Subtitles
  93. Language                                 : German
  94. Default                                  : No
  95. Forced                                   : No
  96. Menu
  97. 00:00:00.000                             : en:Chapter 01
  98. 00:07:36.873                             : en:Chapter 02
  99. 00:20:15.297                             : en:Chapter 03
  100. 00:32:54.639                             : en:Chapter 04
  101. 00:43:33.319                             : en:Chapter 05
  102. 00:52:25.184                             : en:Chapter 06
  103. 01:03:59.169                             : en:Chapter 07
  104. 01:12:18.960                             : en:Chapter 08
  105. 01:21:50.280                             : en:Chapter 09
复制代码






                                       
                                       

                                       
                                       
                                       




回复

使用道具 举报

懒得打字嘛,点击右侧快捷回复 【右侧内容,后台自定义】
您需要登录后才可以回帖 登录 | 立即加入

本版积分规则

Archiver|小黑屋| 蓝光电影网 |网站地图

Copyright © 2021 Comsenz Inc. Powered by 蓝光电影网

蓝光电影网

本站内容由用户自主分享和转载自互联网,转载目的在于传递更多信息,并不代表本网赞同其观点和对其真实性负责。

如有侵权、违反国家法律政策行为,请联系我们,我们会第一时间及时清除和处理!

举报反馈邮箱:[email protected]

快速回复 返回顶部 返回列表