找回密码

蓝光电影网

查看: 70|回复: 3

[喜剧] 城市猎人:新宿 PRIVATE EYES City.Hunter.Shinjuku.Private.Eyes.2019.720p.BluRay.x264-HAiKU 5.48GB

[复制链接]
蓝光币
886
发表于 2022-7-31 09:53:44 | 显示全部楼层 |阅读模式


◎标  题 城市猎人:新宿 PRIVATE EYES
◎译  名 城市猎人戏院版 / City Hunter: Shinjuku Private Eyes
◎片  名 劇場版シティーハンター 新宿プライベート・アイズ
◎年  代 2019
◎产  地 日本
◎类  别 笑剧 / 行动 / 动画
◎语  言 日语
◎上映日期 2019-02-08(日本)
◎IMDb评分 6.5/10 (573人评价)
◎IMDb链接 https://www.imdb.com/title/tt8161914/
◎豆瓣评分 6.7/10 (3581人评价)
◎豆瓣链接 https://movie.douban.com/subject/30174393/
◎片  长 95分钟
◎导  演 儿玉兼嗣 Kenji Kodama
◎编  剧 加藤阳一 Yôichi Katô
       北条司 Tsukasa Hôjô
◎演  员 神谷明 Akira Kamiya
       伊仓一惠 Kazue Ikura
       饭丰万理江 Marie Iitoyo
       山寺宏一 Kôichi Yamadera
       麻上洋子 Yôko Asagami
       玄田哲章 Tesshô Genda
       小山茉美 Mami Koyama
       大塚芳忠 Hôchû Ôtsuka
       德井义实 Yoshimi Tokui
       户田惠子 Keiko Toda
       坂本千夏 Chika Sakamoto
◎标  签 城市猎人 / 日本 / 动画 / 北条司 / 戏院版 / 日本动画 / 2019 / 典范
◎简  介

    北条司的典范动漫作品《城市猎人》戏院版建造决议!城市清道夫冴羽獠重出江湖!原版声优神谷明&伊仓一惠回归,《魔鬼腕表》系列的加藤阳一担任编剧,児玉谦次导演,影片将于2019春季上映。
  1. Video
  2. ID                                       : 1
  3. Format                                   : AVC
  4. Format/Info                              : Advanced Video Codec
  5. Format profile                           : [email protected]
  6. Format settings                          : CABAC / 9 Ref Frames
  7. Format settings, CABAC                   : Yes
  8. Format settings, Reference frames        : 9 frames
  9. Codec ID                                 : V_MPEG4/ISO/AVC
  10. Duration                                 : 1 h 40 min
  11. Bit rate                                 : 6 538 kb/s
  12. Width                                    : 1 280 pixels
  13. Height                                   : 720 pixels
  14. Display aspect ratio                     : 16:9
  15. Frame rate mode                          : Constant
  16. Frame rate                               : 23.976 (24000/1001/189150) FPS
  17. Color space                              : YUV
  18. Chroma subsampling                       : 4:2:0
  19. Bit depth                                : 8 bits
  20. Scan type                                : Progressive
  21. Bits/(Pixel*Frame)                       : 0.296
  22. Stream size                              : 4.57 GiB (83%)
  23. Writing library                          : x264 core 164 r3094 bfc87b7
  24. Encoding settings                        : cabac=1 / ref=9 / deblock=1:-1:1 / analyse=0x3:0x133 / me=umh / subme=10 / psy=1 / psy_rd=0.50:0.00 / mixed_ref=1 / me_range=32 / chroma_me=1 / trellis=2 / 8x8dct=1 / cqm=0 / deadzone=21,11 / fast_pskip=0 / chroma_qp_offset=-2 / threads=22 / lookahead_threads=3 / sliced_threads=0 / nr=0 / decimate=0 / interlaced=0 / bluray_compat=0 / constrained_intra=0 / bframes=8 / b_pyramid=2 / b_adapt=2 / b_bias=0 / direct=3 / weightb=1 / open_gop=0 / weightp=2 / keyint=250 / keyint_min=23 / scenecut=40 / intra_refresh=0 / rc=crf / mbtree=0 / crf=15.0 / qcomp=0.60 / qpmin=0 / qpmax=69 / qpstep=4 / ip_ratio=1.40 / pb_ratio=1.30 / aq=3:1.00
  25. Language                                 : English
  26. Default                                  : Yes
  27. Forced                                   : No
  28. Color range                              : Limited
  29. Matrix coefficients                      : BT.709

  30. Audio #1
  31. ID                                       : 2
  32. Format                                   : AC-3
  33. Format/Info                              : Audio Coding 3
  34. Commercial name                          : Dolby Digital
  35. Codec ID                                 : A_AC3
  36. Duration                                 : 1 h 40 min
  37. Bit rate mode                            : Constant
  38. Bit rate                                 : 640 kb/s
  39. Channel(s)                               : 6 channels
  40. Channel layout                           : L R C LFE Ls Rs
  41. Sampling rate                            : 48.0 kHz
  42. Frame rate                               : 31.250 FPS (1536 SPF)
  43. Compression mode                         : Lossy
  44. Stream size                              : 458 MiB (8%)
  45. Title                                    : Japanese
  46. Language                                 : Japanese
  47. Service kind                             : Complete Main
  48. Default                                  : Yes
  49. Forced                                   : No

  50. Audio #2
  51. ID                                       : 3
  52. Format                                   : AC-3
  53. Format/Info                              : Audio Coding 3
  54. Commercial name                          : Dolby Digital
  55. Codec ID                                 : A_AC3
  56. Duration                                 : 1 h 40 min
  57. Bit rate mode                            : Constant
  58. Bit rate                                 : 640 kb/s
  59. Channel(s)                               : 6 channels
  60. Channel layout                           : L R C LFE Ls Rs
  61. Sampling rate                            : 48.0 kHz
  62. Frame rate                               : 31.250 FPS (1536 SPF)
  63. Compression mode                         : Lossy
  64. Stream size                              : 458 MiB (8%)
  65. Title                                    : English
  66. Language                                 : English
  67. Service kind                             : Complete Main
  68. Default                                  : No
  69. Forced                                   : No

  70. Text #1
  71. ID                                       : 4
  72. Format                                   : UTF-8
  73. Codec ID                                 : S_TEXT/UTF8
  74. Codec ID/Info                            : UTF-8 Plain Text
  75. Duration                                 : 1 h 34 min
  76. Bit rate                                 : 57 b/s
  77. Count of elements                        : 1354
  78. Stream size                              : 40.1 KiB (0%)
  79. Title                                    : English Forced
  80. Language                                 : English
  81. Default                                  : Yes
  82. Forced                                   : Yes

  83. Text #2
  84. ID                                       : 5
  85. Format                                   : UTF-8
  86. Codec ID                                 : S_TEXT/UTF8
  87. Codec ID/Info                            : UTF-8 Plain Text
  88. Duration                                 : 1 h 34 min
  89. Bit rate                                 : 8 b/s
  90. Count of elements                        : 146
  91. Stream size                              : 6.02 KiB (0%)
  92. Title                                    : English Forced for English Dub
  93. Language                                 : English
  94. Default                                  : No
  95. Forced                                   : No

  96. Text #3
  97. ID                                       : 6
  98. Format                                   : PGS
  99. Muxing mode                              : zlib
  100. Codec ID                                 : S_HDMV/PGS
  101. Codec ID/Info                            : Picture based subtitle format used on BDs/HD-DVDs
  102. Duration                                 : 1 h 34 min
  103. Bit rate                                 : 31.7 kb/s
  104. Count of elements                        : 2287
  105. Stream size                              : 21.6 MiB (0%)
  106. Title                                    : English Forced
  107. Language                                 : English
  108. Default                                  : No
  109. Forced                                   : No

  110. Text #4
  111. ID                                       : 7
  112. Format                                   : PGS
  113. Muxing mode                              : zlib
  114. Codec ID                                 : S_HDMV/PGS
  115. Codec ID/Info                            : Picture based subtitle format used on BDs/HD-DVDs
  116. Duration                                 : 1 h 34 min
  117. Bit rate                                 : 3 240 b/s
  118. Count of elements                        : 241
  119. Stream size                              : 2.20 MiB (0%)
  120. Title                                    : English Forced for English Dub
  121. Language                                 : English
  122. Default                                  : No
  123. Forced                                   : No

  124. Menu
  125. 00:00:00.000                             : :Chapter 01
  126. 00:01:52.404                             : :Chapter 02
  127. 00:02:56.468                             : :Chapter 03
  128. 00:09:43.416                             : :Chapter 04
  129. 00:21:40.591                             : :Chapter 05
  130. 00:30:54.728                             : :Chapter 06
  131. 00:43:37.365                             : :Chapter 07
  132. 00:52:20.304                             : :Chapter 08
  133. 01:05:50.029                             : :Chapter 09
  134. 01:16:10.441                             : :Chapter 10
  135. 01:22:10.342                             : :Chapter 11
  136. 01:30:11.906                             : :Chapter 12
  137. 01:34:43.595                             : :Chapter 13
  138. 01:35:41.736                             : :Chapter 14
复制代码





                                       
                                       

                                       
                                       
                                       




回复

使用道具 举报

蓝光币
196
发表于 2022-7-31 17:50:45 | 显示全部楼层
不错不错!!!
回复

使用道具 举报

蓝光币
158
发表于 2022-7-31 18:29:04 | 显示全部楼层

楼主太厉害了!楼主,电影应该很好看我觉得蓝光电影网真是个好地方!
回复 支持 反对

使用道具 举报

蓝光币
257
发表于 2022-8-1 08:55:20 | 显示全部楼层

我看不错噢 谢谢楼主!蓝光电影网越来越好!
回复 支持 反对

使用道具 举报

懒得打字嘛,点击右侧快捷回复 【右侧内容,后台自定义】
您需要登录后才可以回帖 登录 | 立即加入

本版积分规则

Archiver|小黑屋| 蓝光电影网 |网站地图

Copyright © 2021 Comsenz Inc. Powered by 蓝光电影网

蓝光电影网

本站内容由用户自主分享和转载自互联网,转载目的在于传递更多信息,并不代表本网赞同其观点和对其真实性负责。

如有侵权、违反国家法律政策行为,请联系我们,我们会第一时间及时清除和处理!

举报反馈邮箱:[email protected]

快速回复 返回顶部 返回列表