找回密码

蓝光电影网

查看: 164|回复: 1

[喜剧] 坏东西 Very.Bad.Things.1998.1080p.BluRay.x264-YAMG 13.07GB

[复制链接]
蓝光币
1020
发表于 2022-7-31 09:54:37 | 显示全部楼层 |阅读模式


◎标  题 坏工具
◎译  名 婚前不做亏苦衷 / 宝贝黑白
◎片  名 Very Bad Things
◎年  代 1998
◎产  地 美国
◎类  别 笑剧 / 惊悚 / 犯罪
◎语  言 英语
◎上映日期 1998-11-25
◎IMDb评分 6.3/10 (46972人评价)
◎IMDb链接 https://www.imdb.com/title/tt0124198/
◎豆瓣评分 7.1/10 (1186人评价)
◎豆瓣链接 https://movie.douban.com/subject/1293660/
◎片  长 100 分钟
◎导  演 彼得·博格 Peter Berg
◎编  剧 彼得·博格 Peter Berg
◎演  员 卡梅隆·迪亚兹 Cameron Diaz
       克里斯蒂安·史莱特 Christian Slater
       乔恩·费儒 Jon Favreau
       利兰·奥瑟 Leland Orser
       Laura Greenlee Laura Greenlee
       丹·勒邦塔尔 Dan Lebental
       Debi Manwiller Debi Manwiller
       Dina Lipton Dina Lipton
       特里·德雷斯巴赫 Terry Dresbach
       霍华德·伯杰 Howard Berger
       Jeanne Van Phue Jeanne Van Phue
       克里斯·豪厄尔 Chris Howell
◎简  介

  凯尔(乔恩·费儒 Jon Favreau 饰)和劳拉(卡梅隆·迪亚茨 Cameron Diaz 饰)行将步入婚姻的殿堂,在成婚之前,凯尔决议同罗伯特(克里斯汀·史莱特 Christian Slater 饰)、查尔斯(勒兰德·奥瑟 Leland Orser 饰)、麦克(杰里米·皮文 Jeremy Piven 饰)和亚当(丹尼尔·斯特恩 Daniel Stern 饰)四位好友一路到拉斯维加斯停止婚前最初的狂欢。                                    
                                为了替狂欢扫兴,罗伯特请来了一位名叫蒂娜(Kobé Tai 饰)的脱衣舞娘,蒂娜的出现公然扑灭了夜晚的豪情,没想到却也成为了一干麻烦的导火索。一场意外中,蒂娜死在了客房的浴室里,面临这一屋子的毒品,惊慌失措的伙伴们决议“私了”此事,不幸的是,逐步离开了五人掌控的现实将他们一次又一次的抛入了疯狂当中。
  1. Video
  2. ID                                       : 1
  3. Format                                   : AVC
  4. Format/Info                              : Advanced Video Codec
  5. Format profile                           : [email protected]
  6. Format settings                          : CABAC / 4 Ref Frames
  7. Format settings, CABAC                   : Yes
  8. Format settings, Reference frames        : 4 frames
  9. Codec ID                                 : V_MPEG4/ISO/AVC
  10. Duration                                 : 1 h 40 min
  11. Bit rate                                 : 15.8 Mb/s
  12. Width                                    : 1 916 pixels
  13. Height                                   : 1 040 pixels
  14. Display aspect ratio                     : 1.85:1
  15. Frame rate mode                          : Constant
  16. Frame rate                               : 23.976 (24000/1001/189150) FPS
  17. Color space                              : YUV
  18. Chroma subsampling                       : 4:2:0
  19. Bit depth                                : 8 bits
  20. Scan type                                : Progressive
  21. Bits/(Pixel*Frame)                       : 0.330
  22. Stream size                              : 11.1 GiB (85%)
  23. Writing library                          : x264 core 164 r3094 bfc87b7
  24. Encoding settings                        : cabac=1 / ref=4 / deblock=1:-3:-3 / analyse=0x3:0x133 / me=umh / subme=10 / psy=1 / psy_rd=1.00:0.00 / mixed_ref=1 / me_range=32 / chroma_me=1 / trellis=2 / 8x8dct=1 / cqm=0 / deadzone=21,11 / fast_pskip=0 / chroma_qp_offset=-2 / threads=24 / lookahead_threads=4 / sliced_threads=0 / nr=0 / decimate=0 / interlaced=0 / bluray_compat=0 / constrained_intra=0 / bframes=8 / b_pyramid=2 / b_adapt=2 / b_bias=0 / direct=3 / weightb=1 / open_gop=0 / weightp=2 / keyint=250 / keyint_min=23 / scenecut=40 / intra_refresh=0 / rc=crf / mbtree=0 / crf=17.0 / qcomp=0.60 / qpmin=0 / qpmax=69 / qpstep=4 / ip_ratio=1.40 / pb_ratio=1.30 / aq=3:0.60
  25. Language                                 : English
  26. Default                                  : Yes
  27. Forced                                   : No
  28. Color range                              : Limited
  29. Matrix coefficients                      : BT.709

  30. Audio #1
  31. ID                                       : 2
  32. Format                                   : DTS XLL
  33. Format/Info                              : Digital Theater Systems
  34. Commercial name                          : DTS-HD Master Audio
  35. Codec ID                                 : A_DTS
  36. Duration                                 : 1 h 40 min
  37. Bit rate mode                            : Variable
  38. Bit rate                                 : 2 701 kb/s
  39. Channel(s)                               : 6 channels
  40. Channel layout                           : C L R Ls Rs LFE
  41. Sampling rate                            : 48.0 kHz
  42. Frame rate                               : 93.750 FPS (512 SPF)
  43. Bit depth                                : 24 bits
  44. Compression mode                         : Lossless
  45. Stream size                              : 1.90 GiB (15%)
  46. Title                                    : English
  47. Language                                 : English
  48. Default                                  : Yes
  49. Forced                                   : No

  50. Audio #2
  51. ID                                       : 3
  52. Format                                   : AAC LC
  53. Format/Info                              : Advanced Audio Codec Low Complexity
  54. Codec ID                                 : A_AAC-2
  55. Duration                                 : 1 h 40 min
  56. Bit rate                                 : 114 kb/s
  57. Channel(s)                               : 2 channels
  58. Channel layout                           : L R
  59. Sampling rate                            : 48.0 kHz
  60. Frame rate                               : 46.875 FPS (1024 SPF)
  61. Compression mode                         : Lossy
  62. Delay relative to video                  : 20 ms
  63. Stream size                              : 81.8 MiB (1%)
  64. Title                                    : Commentary with film critics Witney Seibold and William Bibbiani
  65. Language                                 : English
  66. Default                                  : No
  67. Forced                                   : No

  68. Text #1
  69. ID                                       : 4
  70. Format                                   : UTF-8
  71. Codec ID                                 : S_TEXT/UTF8
  72. Codec ID/Info                            : UTF-8 Plain Text
  73. Duration                                 : 1 h 38 min
  74. Bit rate                                 : 83 b/s
  75. Count of elements                        : 2268
  76. Stream size                              : 60.4 KiB (0%)
  77. Title                                    : English
  78. Language                                 : English
  79. Default                                  : No
  80. Forced                                   : No

  81. Text #2
  82. ID                                       : 5
  83. Format                                   : UTF-8
  84. Codec ID                                 : S_TEXT/UTF8
  85. Codec ID/Info                            : UTF-8 Plain Text
  86. Duration                                 : 1 h 40 min
  87. Bit rate                                 : 85 b/s
  88. Count of elements                        : 2349
  89. Stream size                              : 62.7 KiB (0%)
  90. Title                                    : English SDH
  91. Language                                 : English
  92. Default                                  : No
  93. Forced                                   : No

  94. Text #3
  95. ID                                       : 6
  96. Format                                   : PGS
  97. Muxing mode                              : zlib
  98. Codec ID                                 : S_HDMV/PGS
  99. Codec ID/Info                            : Picture based subtitle format used on BDs/HD-DVDs
  100. Duration                                 : 1 h 40 min
  101. Bit rate                                 : 52.0 kb/s
  102. Count of elements                        : 2899
  103. Stream size                              : 37.2 MiB (0%)
  104. Title                                    : English SDH PGS
  105. Language                                 : English
  106. Default                                  : No
  107. Forced                                   : No

  108. Menu
  109. 00:00:00.000                             : :Chapter 01
  110. 00:08:39.310                             : :Chapter 02
  111. 00:19:53.609                             : :Chapter 03
  112. 00:30:34.541                             : :Chapter 04
  113. 00:42:30.173                             : :Chapter 05
  114. 00:50:46.543                             : :Chapter 06
  115. 01:00:02.933                             : :Chapter 07
  116. 01:06:30.111                             : :Chapter 08
  117. 01:17:39.572                             : :Chapter 09
  118. 01:24:09.544                             : :Chapter 10
  119. 01:28:50.075                             : :Chapter 11
  120. 01:34:38.631                             : :Chapter 12
复制代码





                                       
                                       

                                       
                                       
                                       




回复

使用道具 举报

蓝光币
88
发表于 2022-7-31 18:05:11 | 显示全部楼层
感谢楼主,再发精品
回复 支持 反对

使用道具 举报

懒得打字嘛,点击右侧快捷回复 【右侧内容,后台自定义】
您需要登录后才可以回帖 登录 | 立即加入

本版积分规则

Archiver|小黑屋| 蓝光电影网 |网站地图

Copyright © 2021 Comsenz Inc. Powered by 蓝光电影网

蓝光电影网

本站内容由用户自主分享和转载自互联网,转载目的在于传递更多信息,并不代表本网赞同其观点和对其真实性负责。

如有侵权、违反国家法律政策行为,请联系我们,我们会第一时间及时清除和处理!

举报反馈邮箱:[email protected]

快速回复 返回顶部 返回列表