找回密码

蓝光电影网

查看: 70|回复: 0

[其他] 帕蒂·史密斯——朋克的诗歌 Patti.Smith.Electric.Poet.2022.1080p.WEBRip.AAC2.0.x264-KUCHU 2.30GB

[复制链接]
蓝光币
1022
发表于 2022-7-31 10:08:37 | 显示全部楼层 |阅读模式


◎标  题 帕蒂·史姑娘——朋克的诗歌
◎译  名 Patti Smith: Poesie und Punk
◎片  名 Patti Smith, la poésie du punk
◎年  代 2022
◎产  地 法国
◎类  别 记载片 / 音乐
◎语  言 法语
◎上映日期 2022-01-07(法国)
◎IMDb评分 6.8/10 (45人评价)
◎IMDb链接 https://www.imdb.com/title/tt16971862/
◎豆瓣链接 https://movie.douban.com/subject/35729942/
◎片  长 54分钟
◎演  员 鲍勃·迪伦 Bob Dylan
       吉姆·莫里森 Jim Morrison
       艾伦·金斯堡 Allen Ginsberg
       劳拉·德尔·索尔 Laura del Sol
       安迪·沃霍尔 Andy Warhol
       帕蒂·史姑娘 Patti Smith
◎简  介

  20岁时,帕蒂·史姑娘来到纽约,打破了摇滚、诗歌和文体的原则。她已经成为一个活生生的传奇人物,从未分开过舞台。墨客、演员和音乐家。也很好战。一个有一千条生命的艺术家,现在74岁了。这部记载片报告了帕蒂·史姑娘的平生。首先是童年,这位艺术家说:“我想成为一个特此外人。我感觉自己很冷淡。不但仅是和其他孩子,我感觉自己阔别了全部天下。我的童年是在我以为自己是外星人的进程中度过的。”小帕蒂在新泽西州农村长大,接管了耶和华见证会母亲的宗教教育。但帕蒂·史姑娘分开了这场活动,这不合适她的艺术偏向。
  1. Video
  2. ID                                       : 1
  3. Format                                   : AVC
  4. Format/Info                              : Advanced Video Codec
  5. Format profile                           : [email protected]
  6. Format settings                          : CABAC / 4 Ref Frames
  7. Format settings, CABAC                   : Yes
  8. Format settings, Reference frames        : 4 frames
  9. Codec ID                                 : V_MPEG4/ISO/AVC
  10. Duration                                 : 53 min 10 s
  11. Bit rate                                 : 5 872 kb/s
  12. Width                                    : 1 920 pixels
  13. Height                                   : 1 080 pixels
  14. Display aspect ratio                     : 16:9
  15. Frame rate mode                          : Constant
  16. Frame rate                               : 25.000 FPS
  17. Color space                              : YUV
  18. Chroma subsampling                       : 4:2:0
  19. Bit depth                                : 8 bits
  20. Scan type                                : Progressive
  21. Bits/(Pixel*Frame)                       : 0.113
  22. Stream size                              : 2.18 GiB (95%)
  23. Default                                  : Yes
  24. Forced                                   : No
  25. Audio
  26. ID                                       : 2
  27. Format                                   : AAC LC
  28. Format/Info                              : Advanced Audio Codec Low Complexity
  29. Codec ID                                 : A_AAC-2
  30. Duration                                 : 53 min 10 s
  31. Bit rate                                 : 317 kb/s
  32. Channel(s)                               : 2 channels
  33. Channel layout                           : L R
  34. Sampling rate                            : 48.0 kHz
  35. Frame rate                               : 46.875 FPS (1024 SPF)
  36. Compression mode                         : Lossy
  37. Stream size                              : 121 MiB (5%)
  38. Language                                 : English
  39. Default                                  : Yes
  40. Forced                                   : No
  41. Text #1
  42. ID                                       : 3
  43. Format                                   : UTF-8
  44. Codec ID                                 : S_TEXT/UTF8
  45. Codec ID/Info                            : UTF-8 Plain Text
  46. Duration                                 : 52 min 20 s
  47. Bit rate                                 : 96 b/s
  48. Frame rate                               : 0.247 FPS
  49. Count of elements                        : 777
  50. Stream size                              : 37.1 KiB (0%)
  51. Language                                 : English
  52. Default                                  : Yes
  53. Forced                                   : No
  54. Text #2
  55. ID                                       : 4
  56. Format                                   : UTF-8
  57. Codec ID                                 : S_TEXT/UTF8
  58. Codec ID/Info                            : UTF-8 Plain Text
  59. Duration                                 : 52 min 55 s
  60. Bit rate                                 : 97 b/s
  61. Frame rate                               : 0.248 FPS
  62. Count of elements                        : 788
  63. Stream size                              : 37.7 KiB (0%)
  64. Language                                 : Spanish
  65. Default                                  : No
  66. Forced                                   : No
复制代码







                                       
                                       

                                       
                                       
                                       




回复

使用道具 举报

懒得打字嘛,点击右侧快捷回复 【右侧内容,后台自定义】
您需要登录后才可以回帖 登录 | 立即加入

本版积分规则

Archiver|小黑屋| 蓝光电影网 |网站地图

Copyright © 2021 Comsenz Inc. Powered by 蓝光电影网

蓝光电影网

本站内容由用户自主分享和转载自互联网,转载目的在于传递更多信息,并不代表本网赞同其观点和对其真实性负责。

如有侵权、违反国家法律政策行为,请联系我们,我们会第一时间及时清除和处理!

举报反馈邮箱:[email protected]

快速回复 返回顶部 返回列表