找回密码

蓝光电影网

查看: 91|回复: 0

[剧情] 处女之死与不生之罪 Death.Of.A.Virgin.And.The.Sin.Of.Not.Living.2021.ARABIC.1080p.WEBRip.AAC2.0.x264-Q0SWEB 3.61GB

[复制链接]
蓝光币
1022
发表于 2022-7-31 10:09:08 | 显示全部楼层 |阅读模式


◎标  题 童贞之死与不生之罪
◎译  名 Death of a Virgin /  and the Sin of Not Living
◎片  名 Death of A Virgin and the Sin of Not Living
◎年  代 2021
◎产  地 黎巴嫩
◎类  别 剧情
◎语  言 阿拉伯语
◎上映日期 2021-03(柏林电影节)
◎IMDb评分 6.9/10 (156人评价)
◎IMDb链接 https://www.imdb.com/title/tt14004136/
◎豆瓣链接 https://movie.douban.com/subject/35370717/
◎片  长 87分钟
◎导  演 乔治·彼得·巴巴里 George Peter Barbari
◎编  剧 乔治·彼得·巴巴里 George Peter Barbari
◎简  介

  入围第71届柏林电影节全景单元。                                    
                                A group of friends pool their money to pay for their first sex. Their journey to see a sex worker is accompanied by boastful teenage conversations, but also sensitive inner monologues. A painful collision between poetry and social reality.
  1. Video
  2. ID                                       : 1
  3. Format                                   : AVC
  4. Format/Info                              : Advanced Video Codec
  5. Format profile                           : [email protected]
  6. Format settings                          : CABAC / 3 Ref Frames
  7. Format settings, CABAC                   : Yes
  8. Format settings, Reference frames        : 3 frames
  9. Codec ID                                 : V_MPEG4/ISO/AVC
  10. Duration                                 : 1 h 25 min
  11. Bit rate mode                            : Constant
  12. Bit rate                                 : 6 000 kb/s
  13. Width                                    : 1 920 pixels
  14. Height                                   : 1 080 pixels
  15. Display aspect ratio                     : 16:9
  16. Frame rate mode                          : Constant
  17. Frame rate                               : 25.000 FPS
  18. Color space                              : YUV
  19. Chroma subsampling                       : 4:2:0
  20. Bit depth                                : 8 bits
  21. Scan type                                : Progressive
  22. Bits/(Pixel*Frame)                       : 0.116
  23. Stream size                              : 3.53 GiB (98%)
  24. Default                                  : Yes
  25. Forced                                   : No
  26. Audio
  27. ID                                       : 2
  28. Format                                   : AAC LC
  29. Format/Info                              : Advanced Audio Codec Low Complexity
  30. Codec ID                                 : A_AAC-2
  31. Duration                                 : 1 h 25 min
  32. Bit rate                                 : 128 kb/s
  33. Channel(s)                               : 2 channels
  34. Channel layout                           : L R
  35. Sampling rate                            : 48.0 kHz
  36. Frame rate                               : 46.875 FPS (1024 SPF)
  37. Compression mode                         : Lossy
  38. Stream size                              : 78.6 MiB (2%)
  39. Title                                    : Arabic
  40. Language                                 : Arabic
  41. Default                                  : Yes
  42. Forced                                   : No
  43. Text
  44. ID                                       : 3
  45. Format                                   : UTF-8
  46. Codec ID                                 : S_TEXT/UTF8
  47. Codec ID/Info                            : UTF-8 Plain Text
  48. Duration                                 : 1 h 22 min
  49. Bit rate                                 : 181 b/s
  50. Frame rate                               : 0.267 FPS
  51. Count of elements                        : 1317
  52. Stream size                              : 109 KiB (0%)
  53. Title                                    : English
  54. Language                                 : English
  55. Default                                  : Yes
  56. Forced                                   : No
复制代码







                                       
                                       

                                       
                                       
                                       




童贞之死与不生之罪 Death.Of.A.Virgin.And.The.Sin.Of.Not.Living.2021.ARABIC.1080p.WEBRip.AAC2.0.x264-Q0SWEB 3.61GB

Death.Of.A.Virgin.And.The.Sin.Of.Not.Living.2021.ARABIC.1080p.WEBRip.AAC2.0.x264.torrent

18.73 KB, 下载次数: 3, 下载积分: 蓝光币 -2

回复

使用道具 举报

懒得打字嘛,点击右侧快捷回复 【右侧内容,后台自定义】
您需要登录后才可以回帖 登录 | 立即加入

本版积分规则

Archiver|小黑屋| 蓝光电影网 |网站地图

Copyright © 2021 Comsenz Inc. Powered by 蓝光电影网

蓝光电影网

本站内容由用户自主分享和转载自互联网,转载目的在于传递更多信息,并不代表本网赞同其观点和对其真实性负责。

如有侵权、违反国家法律政策行为,请联系我们,我们会第一时间及时清除和处理!

举报反馈邮箱:[email protected]

快速回复 返回顶部 返回列表