找回密码

蓝光电影网

查看: 29|回复: 0

[喜剧] 三十岁单身,棒极了 Thirty.Single.And.Fantastic.2016.SPANISH.1080p.AMZN.WEBRip.DDP5.1.x264-CRUD 6.80GB

[复制链接]
蓝光币
886
发表于 2022-7-31 10:09:14 | 显示全部楼层 |阅读模式


◎标  题 三十岁单身,棒极了
◎译  名 #BuscandoaInés
◎片  名 Treintona, Soltera y Fantástica
◎年  代 2016
◎产  地 墨西哥
◎类  别 笑剧
◎语  言 西班牙语
◎上映日期 2016-10-07(墨西哥)
◎IMDb评分 5.2/10 (847人评价)
◎IMDb链接 https://www.imdb.com/title/tt4829436/
◎豆瓣链接 https://movie.douban.com/subject/26978981/
◎片  长 98分钟
◎演  员 詹迪·莫拉 Jordi Mollà
       芭芭拉·默瑞 Bárbara Mori
       安德烈·阿尔梅达 Andrés Almeida
       马丽玛·维加 Marimar Vega
       娜塔莎·杜佩伦 Natasha Dupeyrón
       Héctor Bonilla Héctor Bonilla
        Sarah Nichols
       安杰莉卡·阿拉贡 Angélica Aragón
       胡安·帕布罗·梅迪纳 Juan Pablo Medina
       克劳黛特·麦勒 Claudette Maillé
        Karla Carrillo
        Roberto Quijano
◎简  介

  A woman in her middle thirties discovers herself through life, love and heartbroken.
  1. Video
  2. ID                                       : 1
  3. Format                                   : AVC
  4. Format/Info                              : Advanced Video Codec
  5. Format profile                           : [email protected]
  6. Format settings                          : CABAC / 4 Ref Frames
  7. Format settings, CABAC                   : Yes
  8. Format settings, Reference frames        : 4 frames
  9. Codec ID                                 : V_MPEG4/ISO/AVC
  10. Duration                                 : 1 h 37 min
  11. Bit rate mode                            : Constant
  12. Bit rate                                 : 9 341 kb/s
  13. Nominal bit rate                         : 10 000 kb/s
  14. Width                                    : 1 920 pixels
  15. Height                                   : 1 080 pixels
  16. Display aspect ratio                     : 16:9
  17. Frame rate mode                          : Constant
  18. Frame rate                               : 23.976 (24000/1001/189150) FPS
  19. Color space                              : YUV
  20. Chroma subsampling                       : 4:2:0
  21. Bit depth                                : 8 bits
  22. Scan type                                : Progressive
  23. Bits/(Pixel*Frame)                       : 0.188
  24. Stream size                              : 6.37 GiB (94%)
  25. Default                                  : Yes
  26. Forced                                   : No
  27. Color range                              : Limited
  28. Color primaries                          : BT.709
  29. Transfer characteristics                 : BT.709
  30. Matrix coefficients                      : BT.709
  31. Audio
  32. ID                                       : 2
  33. Format                                   : E-AC-3
  34. Format/Info                              : Enhanced AC-3
  35. Commercial name                          : Dolby Digital Plus
  36. Codec ID                                 : A_EAC3
  37. Duration                                 : 1 h 37 min
  38. Bit rate mode                            : Constant
  39. Bit rate                                 : 640 kb/s
  40. Channel(s)                               : 6 channels
  41. Channel layout                           : L R C LFE Ls Rs
  42. Sampling rate                            : 48.0 kHz
  43. Frame rate                               : 31.250 FPS (1536 SPF)
  44. Bit depth                                : 32 bits
  45. Compression mode                         : Lossy
  46. Stream size                              : 447 MiB (6%)
  47. Language                                 : Spanish
  48. Service kind                             : Complete Main
  49. Default                                  : Yes
  50. Forced                                   : No
  51. Text #1
  52. ID                                       : 3
  53. Format                                   : UTF-8
  54. Codec ID                                 : S_TEXT/UTF8
  55. Codec ID/Info                            : UTF-8 Plain Text
  56. Duration                                 : 1 h 35 min
  57. Bit rate                                 : 60 b/s
  58. Frame rate                               : 0.264 FPS
  59. Count of elements                        : 1512
  60. Stream size                              : 42.2 KiB (0%)
  61. Language                                 : English
  62. Default                                  : Yes
  63. Forced                                   : No
  64. Text #2
  65. ID                                       : 4
  66. Format                                   : UTF-8
  67. Codec ID                                 : S_TEXT/UTF8
  68. Codec ID/Info                            : UTF-8 Plain Text
  69. Duration                                 : 1 h 35 min
  70. Bit rate                                 : 75 b/s
  71. Frame rate                               : 0.284 FPS
  72. Count of elements                        : 1623
  73. Stream size                              : 53.0 KiB (0%)
  74. Language                                 : Spanish
  75. Default                                  : No
  76. Forced                                   : No
  77. Menu
  78. 00:00:00.000                             : en:Studio Logo
  79. 00:01:45.000                             : en:Chapter 1
  80. 00:02:57.000                             : en:Chapter 2
  81. 00:07:25.000                             : en:Chapter 3
  82. 00:10:46.000                             : en:Chapter 4
  83. 00:12:25.000                             : en:Chapter 5
  84. 00:16:47.000                             : en:Chapter 6
  85. 00:24:00.000                             : en:Chapter 7
  86. 00:29:16.000                             : en:Chapter 8
  87. 00:41:10.000                             : en:Chapter 9
  88. 00:46:51.000                             : en:Chapter 10
  89. 00:52:13.000                             : en:Chapter 11
  90. 01:00:20.000                             : en:Chapter 12
  91. 01:10:20.000                             : en:Chapter 13
  92. 01:13:54.000                             : en:Chapter 14
  93. 01:17:29.000                             : en:Chapter 15
  94. 01:20:34.000                             : en:Chapter 16
  95. 01:25:16.000                             : en:Chapter 17
  96. 01:32:25.000                             : en:Chapter 18
  97. 01:32:50.000                             : en:End Credits
复制代码







                                       
                                       

                                       
                                       
                                       




回复

使用道具 举报

懒得打字嘛,点击右侧快捷回复 【右侧内容,后台自定义】
您需要登录后才可以回帖 登录 | 立即加入

本版积分规则

Archiver|小黑屋| 蓝光电影网 |网站地图

Copyright © 2021 Comsenz Inc. Powered by 蓝光电影网

蓝光电影网

本站内容由用户自主分享和转载自互联网,转载目的在于传递更多信息,并不代表本网赞同其观点和对其真实性负责。

如有侵权、违反国家法律政策行为,请联系我们,我们会第一时间及时清除和处理!

举报反馈邮箱:[email protected]

快速回复 返回顶部 返回列表