找回密码

蓝光电影网

查看: 71|回复: 0

[剧情] 听风者之歌 Tramontane.2016.ARABIC.1080p.WEBRip.AAC2.0.x264-Q0SWEB 4.22GB

[复制链接]
蓝光币
1020
发表于 2022-7-31 17:54:19 | 显示全部楼层 |阅读模式


◎标  题 听风者之歌
◎译  名 北风 / 异乡人 / Tramontane / Rabi'h
◎片  名 ربيع
◎年  代 2016
◎产  地 黎巴嫩 / 法国 / 卡塔尔 / 阿联酋
◎类  别 剧情
◎语  言 阿拉伯语
◎上映日期 2016-05-17(戛纳电影节)
◎IMDb评分 6.7/10 (323人评价)
◎IMDb链接 https://www.imdb.com/title/tt5590712/
◎豆瓣评分 7.2/10 (391人评价)
◎豆瓣链接 https://movie.douban.com/subject/26771067/
◎片  长 105分钟
◎导  演 瓦切·布鲁古钧 Vatche Boulghourjian
◎编  剧 瓦切·布鲁古钧 Vatche Boulghourjian
◎演  员 朱莉娅·卡萨 Julia Kassar
◎简  介

  黎巴嫩小村落里的少年拉比,虽然双眼全盲却深具音乐天赋,因出国演 出需申请新护照,意外发现自己的身份证实是捏造!惊觉自己活在假话 当中的惊骇与愤慨囊括而来,不管少年若何诘问,却无人能说明真相。 在中东民谣的婉转乐音中,少年唱出澹然却逼真的忧伤及难过。导演透过瞎眼者的比方,影射黎巴嫩被战争撕裂及扑灭的黑暗史。
  1. Video
  2. ID                                       : 1
  3. Format                                   : AVC
  4. Format/Info                              : Advanced Video Codec
  5. Format profile                           : [email protected]
  6. Format settings                          : CABAC / 3 Ref Frames
  7. Format settings, CABAC                   : Yes
  8. Format settings, Reference frames        : 3 frames
  9. Format settings, GOP                     : M=4, N=50
  10. Codec ID                                 : V_MPEG4/ISO/AVC
  11. Duration                                 : 1 h 40 min
  12. Bit rate mode                            : Constant
  13. Bit rate                                 : 6 000 kb/s
  14. Width                                    : 1 920 pixels
  15. Height                                   : 1 080 pixels
  16. Display aspect ratio                     : 16:9
  17. Frame rate mode                          : Constant
  18. Frame rate                               : 25.000 FPS
  19. Color space                              : YUV
  20. Chroma subsampling                       : 4:2:0
  21. Bit depth                                : 8 bits
  22. Scan type                                : Progressive
  23. Bits/(Pixel*Frame)                       : 0.116
  24. Stream size                              : 4.13 GiB (98%)
  25. Default                                  : Yes
  26. Forced                                   : No
  27. Audio
  28. ID                                       : 2
  29. Format                                   : AAC LC
  30. Format/Info                              : Advanced Audio Codec Low Complexity
  31. Codec ID                                 : A_AAC-2
  32. Duration                                 : 1 h 40 min
  33. Bit rate                                 : 128 kb/s
  34. Channel(s)                               : 2 channels
  35. Channel layout                           : L R
  36. Sampling rate                            : 48.0 kHz
  37. Frame rate                               : 46.875 FPS (1024 SPF)
  38. Compression mode                         : Lossy
  39. Stream size                              : 92.3 MiB (2%)
  40. Title                                    : Arabic
  41. Language                                 : Arabic
  42. Default                                  : Yes
  43. Forced                                   : No
  44. Text
  45. ID                                       : 3
  46. Format                                   : UTF-8
  47. Codec ID                                 : S_TEXT/UTF8
  48. Codec ID/Info                            : UTF-8 Plain Text
  49. Duration                                 : 1 h 31 min
  50. Bit rate                                 : 46 b/s
  51. Frame rate                               : 0.187 FPS
  52. Count of elements                        : 1028
  53. Stream size                              : 31.0 KiB (0%)
  54. Title                                    : English
  55. Language                                 : English
  56. Default                                  : Yes
  57. Forced                                   : No
复制代码







                                       
                                       

                                       
                                       
                                       




回复

使用道具 举报

懒得打字嘛,点击右侧快捷回复 【右侧内容,后台自定义】
您需要登录后才可以回帖 登录 | 立即加入

本版积分规则

Archiver|小黑屋| 蓝光电影网 |网站地图

Copyright © 2021 Comsenz Inc. Powered by 蓝光电影网

蓝光电影网

本站内容由用户自主分享和转载自互联网,转载目的在于传递更多信息,并不代表本网赞同其观点和对其真实性负责。

如有侵权、违反国家法律政策行为,请联系我们,我们会第一时间及时清除和处理!

举报反馈邮箱:[email protected]

快速回复 返回顶部 返回列表