找回密码

蓝光电影网

查看: 19|回复: 0

[其他] 废物 Trashed.2012.1080p.AMZN.WEBRip.DDP2.0.x264-squalor 6.34GB

[复制链接]
蓝光币
886
发表于 2022-7-31 18:02:37 | 显示全部楼层 |阅读模式


◎标  题 废物
◎片  名 Trashed
◎年  代 2012
◎产  地 英国
◎类  别 记载片
◎语  言 英语
◎上映日期 2012-05(戛纳电影节)
◎IMDb评分 7.6/10 (626人评价)
◎IMDb链接 https://www.imdb.com/title/tt2401099/
◎豆瓣链接 https://movie.douban.com/subject/10740302/
◎片  长 88分钟
◎导  演 坎蒂达·布拉迪 Candida Brady
◎编  剧 坎蒂达·布拉迪 Candida Brady
◎演  员 杰瑞米·艾恩斯 Jeremy Irons
◎标  签 记载片 / 环保 / JeremyIrons / Documentary / 英国 / 生态 / 杰瑞米·艾恩斯 / 英国,JeremyIrons
◎简  介

    The film is a global conversation from Iceland to Indonesia between Jeremy Irons and scientists, politicians and ordinary individuals whose health and livelihoods have been fundamentally affected by practices such as landfills and incinerators. Visually and emotionally the film is both horrific and beautiful: an interplay of human stories and ecological disruption. But it ends on a message of hope: showing how the risk to our survival can be averted through sustainable pathways that provide economic solutions while protecting our air, water and food resources.
  1. Video
  2. ID                                       : 1
  3. Format                                   : AVC
  4. Format/Info                              : Advanced Video Codec
  5. Format profile                           : [email protected]
  6. Format settings                          : CABAC / 4 Ref Frames
  7. Format settings, CABAC                   : Yes
  8. Format settings, Reference frames        : 4 frames
  9. Codec ID                                 : V_MPEG4/ISO/AVC
  10. Duration                                 : 1 h 33 min
  11. Bit rate mode                            : Constant
  12. Bit rate                                 : 9 503 kb/s
  13. Nominal bit rate                         : 10 000 kb/s
  14. Width                                    : 1 920 pixels
  15. Height                                   : 1 080 pixels
  16. Display aspect ratio                     : 16:9
  17. Frame rate mode                          : Constant
  18. Frame rate                               : 25.000 FPS
  19. Color space                              : YUV
  20. Chroma subsampling                       : 4:2:0
  21. Bit depth                                : 8 bits
  22. Scan type                                : Progressive
  23. Bits/(Pixel*Frame)                       : 0.183
  24. Stream size                              : 6.19 GiB (98%)
  25. Default                                  : Yes
  26. Forced                                   : No
  27. Color range                              : Limited
  28. Color primaries                          : BT.709
  29. Transfer characteristics                 : BT.709
  30. Matrix coefficients                      : BT.709
  31. Audio
  32. ID                                       : 2
  33. Format                                   : E-AC-3
  34. Format/Info                              : Enhanced AC-3
  35. Commercial name                          : Dolby Digital Plus
  36. Codec ID                                 : A_EAC3
  37. Duration                                 : 1 h 33 min
  38. Bit rate mode                            : Constant
  39. Bit rate                                 : 224 kb/s
  40. Channel(s)                               : 2 channels
  41. Channel layout                           : L R
  42. Sampling rate                            : 48.0 kHz
  43. Frame rate                               : 31.250 FPS (1536 SPF)
  44. Compression mode                         : Lossy
  45. Stream size                              : 149 MiB (2%)
  46. Language                                 : English
  47. Service kind                             : Complete Main
  48. Default                                  : Yes
  49. Forced                                   : No
  50. Text
  51. ID                                       : 3
  52. Format                                   : UTF-8
  53. Codec ID                                 : S_TEXT/UTF8
  54. Codec ID/Info                            : UTF-8 Plain Text
  55. Duration                                 : 1 h 32 min
  56. Bit rate                                 : 87 b/s
  57. Frame rate                               : 0.259 FPS
  58. Count of elements                        : 1439
  59. Stream size                              : 59.5 KiB (0%)
  60. Language                                 : English
  61. Default                                  : No
  62. Forced                                   : No
复制代码




                                       
                                       

                                       
                                       
                                       




回复

使用道具 举报

懒得打字嘛,点击右侧快捷回复 【右侧内容,后台自定义】
您需要登录后才可以回帖 登录 | 立即加入

本版积分规则

Archiver|小黑屋| 蓝光电影网 |网站地图

Copyright © 2021 Comsenz Inc. Powered by 蓝光电影网

蓝光电影网

本站内容由用户自主分享和转载自互联网,转载目的在于传递更多信息,并不代表本网赞同其观点和对其真实性负责。

如有侵权、违反国家法律政策行为,请联系我们,我们会第一时间及时清除和处理!

举报反馈邮箱:[email protected]

快速回复 返回顶部 返回列表