找回密码

蓝光电影网

查看: 139|回复: 1

[UHD.HEVC] 比利小子 The.Kid.2019.2160p.BluRay.REMUX.HEVC.SDR.DTS-HD.MA.5.1-FGT 44.08GB

[复制链接]
蓝光币
1022
发表于 2022-7-31 17:41:32 | 显示全部楼层 |阅读模式


◎标  题 比利小子
◎译  名 小子
◎片  名 The Kid
◎年  代 2019
◎产  地 美国
◎类  别 剧情 / 列传 / 西部
◎语  言 英语
◎上映日期 2019-03-08(美国)
◎IMDb评分 5.9/10 (7901人评价)
◎IMDb链接 https://www.imdb.com/title/tt4975920/
◎豆瓣评分 5.9/10 (763人评价)
◎豆瓣链接 https://movie.douban.com/subject/26959517/
◎片  长 100分钟
◎导  演 文森特·多诺费奥 Vincent D'Onofrio
◎编  剧 安德鲁·兰纳姆 Andrew Lanham
◎演  员 克里斯·帕拉特 Chris Pratt
       文森特·多诺费奥 Vincent D'Onofrio
       伊桑·霍克 Ethan Hawke
       莱拉·乔治 Leila George
       戴恩·德哈恩 Dane DeHaan
       亚当·鲍德温 Adam Baldwin
       基思·雅各 Keith Jardine
       泰特·弗莱彻 Tait Fletcher
       詹妮加布里埃尔 Jenny Gabrielle
       斯塔福德·道格拉斯 Stafford Douglas
       蕾切尔·德·拉·托尔 Rachel de la Torre
       J·内森·西蒙斯 J. Nathan Simmons
       保罗· 罗森布拉姆 Paul Rosenblum
       杰克·舒尔 Jake Schur
◎标  签 西部 / 美国 / 犯罪 / 2019 / 西部片 / 剧情 / 冒险 / 行动
◎简  介

    男孩Rio(Jake Schur)被迫穿过美国西南部,试图从他残暴(克里斯·帕拉特)的叔叔手中,救回他的姐姐Sara(莱拉·乔治)。另一边,著名的犯警之徒比利小子(戴恩·德哈恩)正遭到警长派特·加勒特(伊桑·霍克)的追捕。                                                                      Rio与这两人相遇,目击了比例和警长之间关于逃窜、追捕、斗争的故事,并渐渐卷入其中。但终极,Rio要做出挑选,他要成为哪类人,法外之徒还是正义代表?别的,他将若何从恶舅舅帕帕手中救下姐姐?
  1. Video
  2. ID                                       : 1
  3. ID in the original source medium         : 4113 (0x1011)
  4. Format                                   : HEVC
  5. Format/Info                              : High Efficiency Video Coding
  6. Format profile                           : Main [email protected]@High
  7. Codec ID                                 : V_MPEGH/ISO/HEVC
  8. Duration                                 : 1 h 39 min
  9. Bit rate                                 : 59.0 Mb/s
  10. Width                                    : 3 840 pixels
  11. Height                                   : 2 160 pixels
  12. Display aspect ratio                     : 16:9
  13. Frame rate mode                          : Constant
  14. Frame rate                               : 23.976 (24000/1001/189150) FPS
  15. Color space                              : YUV
  16. Chroma subsampling                       : 4:2:0 (Type 2)
  17. Bit depth                                : 10 bits
  18. Bits/(Pixel*Frame)                       : 0.297
  19. Stream size                              : 41.2 GiB (93%)
  20. Language                                 : English
  21. Default                                  : No
  22. Forced                                   : No
  23. Color range                              : Limited
  24. Color primaries                          : BT.709
  25. Transfer characteristics                 : BT.709
  26. Matrix coefficients                      : BT.709
  27. Original source medium                   : Blu-ray
  28. Audio #1
  29. ID                                       : 2
  30. ID in the original source medium         : 4352 (0x1100)
  31. Format                                   : DTS XLL
  32. Format/Info                              : Digital Theater Systems
  33. Commercial name                          : DTS-HD Master Audio
  34. Codec ID                                 : A_DTS
  35. Duration                                 : 1 h 39 min
  36. Bit rate mode                            : Variable
  37. Bit rate                                 : 3 473 kb/s
  38. Channel(s)                               : 6 channels
  39. Channel layout                           : C L R Ls Rs LFE
  40. Sampling rate                            : 48.0 kHz
  41. Frame rate                               : 93.750 FPS (512 SPF)
  42. Bit depth                                : 24 bits
  43. Compression mode                         : Lossless
  44. Stream size                              : 2.42 GiB (6%)
  45. Title                                    : DTS-HD MA 5.1
  46. Language                                 : English
  47. Default                                  : Yes
  48. Forced                                   : No
  49. Original source medium                   : Blu-ray
  50. Audio #2
  51. ID                                       : 3
  52. Format                                   : AC-3
  53. Format/Info                              : Audio Coding 3
  54. Commercial name                          : Dolby Digital
  55. Codec ID                                 : A_AC3
  56. Duration                                 : 1 h 39 min
  57. Bit rate mode                            : Constant
  58. Bit rate                                 : 640 kb/s
  59. Channel(s)                               : 6 channels
  60. Channel layout                           : L R C LFE Ls Rs
  61. Sampling rate                            : 48.0 kHz
  62. Frame rate                               : 31.250 FPS (1536 SPF)
  63. Compression mode                         : Lossy
  64. Stream size                              : 458 MiB (1%)
  65. Title                                    : DD 5.1
  66. Language                                 : English
  67. Service kind                             : Complete Main
  68. Default                                  : No
  69. Forced                                   : No
  70. Text #1
  71. ID                                       : 4
  72. Format                                   : UTF-8
  73. Codec ID                                 : S_TEXT/UTF8
  74. Codec ID/Info                            : UTF-8 Plain Text
  75. Duration                                 : 1 h 36 min
  76. Bit rate                                 : 46 b/s
  77. Frame rate                               : 0.171 FPS
  78. Count of elements                        : 986
  79. Stream size                              : 32.6 KiB (0%)
  80. Language                                 : English
  81. Default                                  : Yes
  82. Forced                                   : No
  83. Text #2
  84. ID                                       : 5
  85. Format                                   : UTF-8
  86. Codec ID                                 : S_TEXT/UTF8
  87. Codec ID/Info                            : UTF-8 Plain Text
  88. Duration                                 : 1 h 36 min
  89. Bit rate                                 : 49 b/s
  90. Frame rate                               : 0.184 FPS
  91. Count of elements                        : 1070
  92. Stream size                              : 35.2 KiB (0%)
  93. Title                                    : SDH
  94. Language                                 : English
  95. Default                                  : No
  96. Forced                                   : No
  97. Text #3
  98. ID                                       : 6
  99. ID in the original source medium         : 4608 (0x1200)
  100. Format                                   : PGS
  101. Muxing mode                              : zlib
  102. Codec ID                                 : S_HDMV/PGS
  103. Codec ID/Info                            : Picture based subtitle format used on BDs/HD-DVDs
  104. Duration                                 : 1 h 37 min
  105. Bit rate                                 : 30.5 kb/s
  106. Frame rate                               : 0.376 FPS
  107. Count of elements                        : 2194
  108. Stream size                              : 21.2 MiB (0%)
  109. Language                                 : English
  110. Default                                  : No
  111. Forced                                   : No
  112. Original source medium                   : Blu-ray
  113. Text #4
  114. ID                                       : 7
  115. ID in the original source medium         : 4609 (0x1201)
  116. Format                                   : PGS
  117. Muxing mode                              : zlib
  118. Codec ID                                 : S_HDMV/PGS
  119. Codec ID/Info                            : Picture based subtitle format used on BDs/HD-DVDs
  120. Duration                                 : 1 h 38 min
  121. Bit rate                                 : 26.2 kb/s
  122. Frame rate                               : 0.321 FPS
  123. Count of elements                        : 1896
  124. Stream size                              : 18.5 MiB (0%)
  125. Language                                 : Spanish
  126. Default                                  : No
  127. Forced                                   : No
  128. Original source medium                   : Blu-ray
  129. Menu
  130. 00:00:00.000                             : en:Chapter 01
  131. 00:10:01.225                             : en:Chapter 02
  132. 00:20:01.116                             : en:Chapter 03
  133. 00:30:03.134                             : en:Chapter 04
  134. 00:40:02.900                             : en:Chapter 05
  135. 00:50:03.583                             : en:Chapter 06
  136. 01:00:03.558                             : en:Chapter 07
  137. 01:10:04.867                             : en:Chapter 08
  138. 01:20:06.510                             : en:Chapter 09
  139. 01:30:06.025                             : en:Chapter 10
  140. 01:33:26.517                             : en:Chapter 11
复制代码




                                       
                                       

                                       
                                       
                                       




回复

使用道具 举报

蓝光币
113
发表于 2022-8-15 15:00:18 | 显示全部楼层
楼主发贴辛苦了,谢谢楼主分享!我觉得蓝光电影网是注册对了!
回复 支持 反对

使用道具 举报

懒得打字嘛,点击右侧快捷回复 【右侧内容,后台自定义】
您需要登录后才可以回帖 登录 | 立即加入

本版积分规则

Archiver|小黑屋| 蓝光电影网 |网站地图

Copyright © 2021 Comsenz Inc. Powered by 蓝光电影网

蓝光电影网

本站内容由用户自主分享和转载自互联网,转载目的在于传递更多信息,并不代表本网赞同其观点和对其真实性负责。

如有侵权、违反国家法律政策行为,请联系我们,我们会第一时间及时清除和处理!

举报反馈邮箱:[email protected]

快速回复 返回顶部 返回列表