找回密码

蓝光电影网

查看: 195|回复: 2

[UHD.HEVC] 天地逃生 Gamer.2009.2160p.BluRay.REMUX.HEVC.DTS-HD.MA.5.1-FGT 42.18GB

[复制链接]
蓝光币
1022
发表于 2022-7-31 17:40:15 | 显示全部楼层 |阅读模式


◎标  题 六合逃生
◎译  名 真人游戏 / 百姓游戏 / 游戏求生 / 游戏杀机 / 极限游戏 / 游戏
◎片  名 Gamer
◎年  代 2009
◎产  地 美国
◎类  别 行动 / 科幻 / 惊悚
◎语  言 英语
◎上映日期 2010-03-17(中国大陆) / 2009-09-04(美国)
◎IMDb评分 5.8/10 (133086人评价)
◎IMDb链接 https://www.imdb.com/title/tt1034032/
◎豆瓣评分 6.1/10 (18672人评价)
◎豆瓣链接 https://movie.douban.com/subject/2301706/
◎片  长 95 分钟
◎导  演 马克·耐沃尔代 Mark Neveldine
       布莱恩·泰勒 Brian Taylor
       布莱恩·泰勒 Brian Taylor
◎编  剧 马克·耐沃尔代 Mark Neveldine
       布莱恩·泰勒 Brian Taylor
       布莱恩·泰勒 Brian Taylor
◎演  员 杰拉德·巴特勒 Gerard Butler
       迈克尔·C·豪尔 Michael C. Hall
       卢达·克里斯 Ludacris
       安贝·瓦莱塔 Amber Valletta
       凯拉·塞吉维克 Kyra Sedgwick
       罗根·勒曼 Logan Lerman
       艾莉森·洛曼 Alison Lohman
       艾伦·余 Aaron Yoo
       泰瑞·克鲁斯 Terry Crews
       海莉·德里贝瑞 Hayley Derryberry
       杰伊·斯特凡 Jai Stefan
       布丽吉德·弗莱明 Brighid Fleming
       米洛·文堤米利亚 Milo Ventimiglia
       佐伊·贝尔 Zoe Bell
       加里·卢切西 Gary Lucchesi
       Skip Williamson Skip Williamson
       汤姆·罗森伯格 Tom Rosenberg
       Ekkehart Pollack Ekkehart Pollack
       玛丽·韦尔涅 Mary Vernieu
       克里斯蒂安·汀斯利 Christien Tinsley
       乔恩·马拉德 Jon Mallard
       Thomas Duval Thomas Duval
       吉姆·戈尔曼 Jim Gorman
       Greg Groenekamp Greg Groenekamp
       丹尼·S·金 Danny S. Kim
       汤米·陈 Tommy Tran
◎标  签 科幻 / 行动 / 美国 / 暴力 / 美国电影 / 2009 / GerardButler / 电影
◎简  介

  在不远的未来,技术天赋肯•卡斯特(Michael C. Hall 饰)发现了将指令细胞植入人脑的纳米技术,以此为根本,卡斯特开辟了两款真人在线操控游戏——“社会”和“凶手”,其中“凶手”是将死刑犯们置入残暴的杀戮疆场,由线下的玩家批示他们作战。卡贝尔(Gerard Butler 饰)是凶手游戏中的一位常胜战士,今朝已经从27场角逐中存活,而依照法则,只要他再成功三次,便可以重获自在。                                    
                                一个抵挡构造在黑暗策划颠覆金玉合座的卡斯特,他们找到卡贝尔在游戏中的线下配合者——少年西蒙(Gerard Butler 饰),并希望他放弃对卡贝尔的操控,由于后者行将面临卡斯特的诡计暗害。此时的卡贝尔,成为了颠覆卡斯特的关键气力……
  1. Video
  2. ID                                       : 1
  3. ID in the original source medium         : 4113 (0x1011)
  4. Format                                   : HEVC
  5. Format/Info                              : High Efficiency Video Coding
  6. Format profile                           : Main [email protected]@High
  7. Codec ID                                 : V_MPEGH/ISO/HEVC
  8. Duration                                 : 1 h 34 min
  9. Bit rate                                 : 59.0 Mb/s
  10. Width                                    : 3 840 pixels
  11. Height                                   : 2 160 pixels
  12. Display aspect ratio                     : 16:9
  13. Frame rate mode                          : Constant
  14. Frame rate                               : 23.976 (24000/1001/189150) FPS
  15. Color space                              : YUV
  16. Chroma subsampling                       : 4:2:0 (Type 2)
  17. Bit depth                                : 10 bits
  18. Bits/(Pixel*Frame)                       : 0.297
  19. Stream size                              : 39.0 GiB (93%)
  20. Language                                 : English
  21. Default                                  : No
  22. Forced                                   : No
  23. Color range                              : Limited
  24. Color primaries                          : BT.2020
  25. Transfer characteristics                 : BT.2020 (10-bit)
  26. Matrix coefficients                      : BT.2020 non-constant
  27. Original source medium                   : Blu-ray
  28. Audio #1
  29. ID                                       : 2
  30. ID in the original source medium         : 4352 (0x1100)
  31. Format                                   : DTS XLL
  32. Format/Info                              : Digital Theater Systems
  33. Commercial name                          : DTS-HD Master Audio
  34. Codec ID                                 : A_DTS
  35. Duration                                 : 1 h 34 min
  36. Bit rate mode                            : Variable
  37. Bit rate                                 : 3 892 kb/s
  38. Channel(s)                               : 6 channels
  39. Channel layout                           : C L R Ls Rs LFE
  40. Sampling rate                            : 48.0 kHz
  41. Frame rate                               : 93.750 FPS (512 SPF)
  42. Bit depth                                : 24 bits
  43. Compression mode                         : Lossless
  44. Stream size                              : 2.58 GiB (6%)
  45. Title                                    : DTS-HD MA 5.1
  46. Language                                 : English
  47. Default                                  : Yes
  48. Forced                                   : No
  49. Original source medium                   : Blu-ray
  50. Audio #2
  51. ID                                       : 3
  52. Format                                   : AC-3
  53. Format/Info                              : Audio Coding 3
  54. Commercial name                          : Dolby Digital
  55. Codec ID                                 : A_AC3
  56. Duration                                 : 1 h 34 min
  57. Bit rate mode                            : Constant
  58. Bit rate                                 : 640 kb/s
  59. Channel(s)                               : 6 channels
  60. Channel layout                           : L R C LFE Ls Rs
  61. Sampling rate                            : 48.0 kHz
  62. Frame rate                               : 31.250 FPS (1536 SPF)
  63. Compression mode                         : Lossy
  64. Stream size                              : 434 MiB (1%)
  65. Title                                    : DD 5.1
  66. Language                                 : English
  67. Service kind                             : Complete Main
  68. Default                                  : No
  69. Forced                                   : No
  70. Audio #3
  71. ID                                       : 4
  72. ID in the original source medium         : 4353 (0x1101)
  73. Format                                   : AC-3
  74. Format/Info                              : Audio Coding 3
  75. Commercial name                          : Dolby Digital
  76. Codec ID                                 : A_AC3
  77. Duration                                 : 1 h 34 min
  78. Bit rate mode                            : Constant
  79. Bit rate                                 : 192 kb/s
  80. Channel(s)                               : 2 channels
  81. Channel layout                           : L R
  82. Sampling rate                            : 48.0 kHz
  83. Frame rate                               : 31.250 FPS (1536 SPF)
  84. Compression mode                         : Lossy
  85. Stream size                              : 130 MiB (0%)
  86. Title                                    : DD 2.0
  87. Language                                 : English
  88. Service kind                             : Complete Main
  89. Default                                  : No
  90. Forced                                   : No
  91. Original source medium                   : Blu-ray
  92. Text #1
  93. ID                                       : 5
  94. Format                                   : UTF-8
  95. Codec ID                                 : S_TEXT/UTF8
  96. Codec ID/Info                            : UTF-8 Plain Text
  97. Duration                                 : 1 h 21 min
  98. Bit rate                                 : 49 b/s
  99. Frame rate                               : 0.162 FPS
  100. Count of elements                        : 794
  101. Stream size                              : 29.4 KiB (0%)
  102. Language                                 : English
  103. Default                                  : Yes
  104. Forced                                   : No
  105. Text #2
  106. ID                                       : 6
  107. Format                                   : UTF-8
  108. Codec ID                                 : S_TEXT/UTF8
  109. Codec ID/Info                            : UTF-8 Plain Text
  110. Duration                                 : 1 h 22 min
  111. Bit rate                                 : 53 b/s
  112. Frame rate                               : 0.202 FPS
  113. Count of elements                        : 1000
  114. Stream size                              : 32.6 KiB (0%)
  115. Title                                    : SDH
  116. Language                                 : English
  117. Default                                  : No
  118. Forced                                   : No
  119. Text #3
  120. ID                                       : 7
  121. ID in the original source medium         : 4608 (0x1200)
  122. Format                                   : PGS
  123. Muxing mode                              : zlib
  124. Codec ID                                 : S_HDMV/PGS
  125. Codec ID/Info                            : Picture based subtitle format used on BDs/HD-DVDs
  126. Duration                                 : 1 h 22 min
  127. Bit rate                                 : 30.6 kb/s
  128. Frame rate                               : 0.410 FPS
  129. Count of elements                        : 2036
  130. Stream size                              : 18.1 MiB (0%)
  131. Language                                 : English
  132. Default                                  : No
  133. Forced                                   : No
  134. Original source medium                   : Blu-ray
  135. Text #4
  136. ID                                       : 8
  137. ID in the original source medium         : 4609 (0x1201)
  138. Format                                   : PGS
  139. Muxing mode                              : zlib
  140. Codec ID                                 : S_HDMV/PGS
  141. Codec ID/Info                            : Picture based subtitle format used on BDs/HD-DVDs
  142. Duration                                 : 1 h 24 min
  143. Bit rate                                 : 22.0 kb/s
  144. Frame rate                               : 0.325 FPS
  145. Count of elements                        : 1650
  146. Stream size                              : 13.3 MiB (0%)
  147. Language                                 : Spanish
  148. Default                                  : No
  149. Forced                                   : No
  150. Original source medium                   : Blu-ray
  151. Menu
  152. 00:00:00.000                             : en:Chapter 01
  153. 00:10:07.231                             : en:Chapter 02
  154. 00:20:02.326                             : en:Chapter 03
  155. 00:30:01.841                             : en:Chapter 04
  156. 00:40:02.691                             : en:Chapter 05
  157. 00:50:07.045                             : en:Chapter 06
  158. 01:00:04.058                             : en:Chapter 07
  159. 01:10:04.283                             : en:Chapter 08
  160. 01:20:05.467                             : en:Chapter 09
  161. 01:25:06.351                             : en:Chapter 10
复制代码




                                       
                                       

                                       
                                       
                                       




回复

使用道具 举报

蓝光币
1475
发表于 2022-8-1 17:12:36 | 显示全部楼层

这东西我收了!谢谢楼主!蓝光电影网真好!
回复 支持 反对

使用道具 举报

蓝光币
113
发表于 2022-8-15 14:59:19 | 显示全部楼层
楼主发贴辛苦了,谢谢楼主分享!我觉得蓝光电影网是注册对了!
回复 支持 反对

使用道具 举报

懒得打字嘛,点击右侧快捷回复 【右侧内容,后台自定义】
您需要登录后才可以回帖 登录 | 立即加入

本版积分规则

Archiver|小黑屋| 蓝光电影网 |网站地图

Copyright © 2021 Comsenz Inc. Powered by 蓝光电影网

蓝光电影网

本站内容由用户自主分享和转载自互联网,转载目的在于传递更多信息,并不代表本网赞同其观点和对其真实性负责。

如有侵权、违反国家法律政策行为,请联系我们,我们会第一时间及时清除和处理!

举报反馈邮箱:[email protected]

快速回复 返回顶部 返回列表