找回密码

蓝光电影网

查看: 46|回复: 1

[剧情] 暖暖内含光 Eternal.Sunshine.of.the.Spotless.Mind.2004.REMASTERED.1080p.BluRay.REMUX.AVC.DTS-HD.MA.5.1-FGT 31.41GB

[复制链接]
蓝光币
886
发表于 2022-7-31 22:07:36 | 显示全部楼层 |阅读模式


◎标  题 暖暖内含光
◎译  名 暧暧内含光 / 美丽心灵的永久阳光 / 纯洁心灵的永久阳光 / 无瑕心灵的永久阳光 / 无痛失恋(港) / 王牌朋友(台) / 灵光乍现 / 忘记你我做不到(豆友译名)
◎片  名 Eternal Sunshine of the Spotless Mind
◎年  代 2004
◎产  地 美国
◎类  别 剧情 / 恋爱 / 科幻
◎语  言 英语
◎上映日期 2004-03-19(美国)
◎IMDb评分 8.3/10 (957331人评价)
◎IMDb链接 https://www.imdb.com/title/tt0338013/
◎豆瓣链接 https://movie.douban.com/subject/1308777/
◎片  长 108分钟
◎标  签 恋爱 / 美国 / 文艺 / 奇异 / 心理 / 剧情 / 失忆 / 浪漫
◎简  介

    外向沉稳的约尔•巴瑞斯(金•凯瑞 饰)在一次集会中熟悉了率真随性的克莱门汀•克罗斯基(凯特•温丝莱特 饰),二人成为情侣。和普通的情侣一样,他们的日子也在甜蜜和争持中度过。                                                                      2004年情人节前夜,当约尔经心预备好礼物,为未几前一次争持找到克莱门汀道歉时,他惊奇地发现,克莱门汀底子都不记得他了。本来感动的克莱门汀受不了二人交往中争持的疾苦,到“忘情医院”,把关于约尔的记忆删除得六根清净。                                                                      约尔没法谅解克莱门汀的任性,也没法忍受落空她的疾苦,所以他也到了“忘情医院”,请求医生霍华德博士(汤姆•维尔金森 饰)消除关于克莱门汀的记忆。                                                                      记忆断根法式起头启动,约尔在自己的记忆中游走,他发现和克莱斯汀一路度过的那些时光,不管是疾苦还是甜蜜,都弥足珍贵,他并不想忘记这个自己深爱的女人。可是,法式一旦启动就没法逆转,约尔只能想尽法子把克莱斯汀藏到记忆最深的地方,那些现实中克莱斯汀原本没有出现过的时候角落,以保存这份恋爱……
  1. Video
  2. ID                                       : 1
  3. ID in the original source medium         : 4113 (0x1011)
  4. Format                                   : AVC
  5. Format/Info                              : Advanced Video Codec
  6. Format profile                           : [email protected]
  7. Format settings                          : CABAC / 4 Ref Frames
  8. Format settings, CABAC                   : Yes
  9. Format settings, Reference frames        : 4 frames
  10. Codec ID                                 : V_MPEG4/ISO/AVC
  11. Duration                                 : 1 h 47 min
  12. Bit rate mode                            : Variable
  13. Bit rate                                 : 37.5 Mb/s
  14. Maximum bit rate                         : 39.0 Mb/s
  15. Width                                    : 1 920 pixels
  16. Height                                   : 1 080 pixels
  17. Display aspect ratio                     : 16:9
  18. Frame rate mode                          : Constant
  19. Frame rate                               : 24.000 FPS
  20. Color space                              : YUV
  21. Chroma subsampling                       : 4:2:0
  22. Bit depth                                : 8 bits
  23. Scan type                                : Progressive
  24. Bits/(Pixel*Frame)                       : 0.753
  25. Stream size                              : 28.2 GiB (90%)
  26. Language                                 : English
  27. Default                                  : No
  28. Forced                                   : No
  29. Original source medium                   : Blu-ray
  30. Audio #1
  31. ID                                       : 2
  32. ID in the original source medium         : 4352 (0x1100)
  33. Format                                   : DTS XLL
  34. Format/Info                              : Digital Theater Systems
  35. Commercial name                          : DTS-HD Master Audio
  36. Codec ID                                 : A_DTS
  37. Duration                                 : 1 h 47 min
  38. Bit rate mode                            : Variable
  39. Bit rate                                 : 2 418 kb/s
  40. Channel(s)                               : 6 channels
  41. Channel layout                           : C L R Ls Rs LFE
  42. Sampling rate                            : 48.0 kHz
  43. Frame rate                               : 93.750 FPS (512 SPF)
  44. Bit depth                                : 24 bits
  45. Compression mode                         : Lossless
  46. Stream size                              : 1.82 GiB (6%)
  47. Title                                    : DTS-HD MA 5.1
  48. Language                                 : English
  49. Default                                  : Yes
  50. Forced                                   : No
  51. Original source medium                   : Blu-ray
  52. Audio #2
  53. ID                                       : 3
  54. ID in the original source medium         : 4353 (0x1101)
  55. Format                                   : DTS XLL
  56. Format/Info                              : Digital Theater Systems
  57. Commercial name                          : DTS-HD Master Audio
  58. Codec ID                                 : A_DTS
  59. Duration                                 : 1 h 47 min
  60. Bit rate mode                            : Variable
  61. Bit rate                                 : 1 594 kb/s
  62. Channel(s)                               : 2 channels
  63. Channel layout                           : L R
  64. Sampling rate                            : 48.0 kHz
  65. Frame rate                               : 93.750 FPS (512 SPF)
  66. Bit depth                                : 24 bits
  67. Compression mode                         : Lossless
  68. Stream size                              : 1.20 GiB (4%)
  69. Title                                    : DTS-HD MA 2.0
  70. Language                                 : English
  71. Default                                  : No
  72. Forced                                   : No
  73. Original source medium                   : Blu-ray
  74. Audio #3
  75. ID                                       : 4
  76. ID in the original source medium         : 4354 (0x1102)
  77. Format                                   : AC-3
  78. Format/Info                              : Audio Coding 3
  79. Commercial name                          : Dolby Digital
  80. Codec ID                                 : A_AC3
  81. Duration                                 : 1 h 47 min
  82. Bit rate mode                            : Constant
  83. Bit rate                                 : 192 kb/s
  84. Channel(s)                               : 2 channels
  85. Channel layout                           : L R
  86. Sampling rate                            : 48.0 kHz
  87. Frame rate                               : 31.250 FPS (1536 SPF)
  88. Compression mode                         : Lossy
  89. Stream size                              : 148 MiB (0%)
  90. Title                                    : DD 2.0
  91. Language                                 : English
  92. Service kind                             : Complete Main
  93. Default                                  : No
  94. Forced                                   : No
  95. Original source medium                   : Blu-ray
  96. Text #1
  97. ID                                       : 5
  98. Format                                   : UTF-8
  99. Codec ID                                 : S_TEXT/UTF8
  100. Codec ID/Info                            : UTF-8 Plain Text
  101. Duration                                 : 1 h 46 min
  102. Bit rate                                 : 66 b/s
  103. Frame rate                               : 0.251 FPS
  104. Count of elements                        : 1609
  105. Stream size                              : 51.8 KiB (0%)
  106. Language                                 : English
  107. Default                                  : Yes
  108. Forced                                   : No
  109. Text #2
  110. ID                                       : 6
  111. Format                                   : UTF-8
  112. Codec ID                                 : S_TEXT/UTF8
  113. Codec ID/Info                            : UTF-8 Plain Text
  114. Duration                                 : 1 h 46 min
  115. Bit rate                                 : 73 b/s
  116. Frame rate                               : 0.266 FPS
  117. Count of elements                        : 1710
  118. Stream size                              : 57.4 KiB (0%)
  119. Title                                    : SDH
  120. Language                                 : English
  121. Default                                  : No
  122. Forced                                   : No
  123. Text #3
  124. ID                                       : 7
  125. ID in the original source medium         : 4608 (0x1200)
  126. Format                                   : PGS
  127. Muxing mode                              : zlib
  128. Codec ID                                 : S_HDMV/PGS
  129. Codec ID/Info                            : Picture based subtitle format used on BDs/HD-DVDs
  130. Duration                                 : 1 h 46 min
  131. Bit rate                                 : 45.2 kb/s
  132. Frame rate                               : 0.335 FPS
  133. Count of elements                        : 2148
  134. Stream size                              : 34.6 MiB (0%)
  135. Language                                 : English
  136. Default                                  : No
  137. Forced                                   : No
  138. Original source medium                   : Blu-ray
  139. Menu
  140. 00:00:00.000                             : en:Chapter 00
  141. 00:09:32.125                             : en:Chapter 01
  142. 00:25:11.791                             : en:Chapter 02
  143. 00:43:05.500                             : en:Chapter 03
  144. 01:02:50.958                             : en:Chapter 04
  145. 01:15:47.375                             : en:Chapter 05
  146. 01:31:41.166                             : en:Chapter 06
  147. 01:39:02.750                             : en:Chapter 07
复制代码





                                       
                                       

                                       
                                       
                                       




暖暖内含光 Eternal.Sunshine.of.the.Spotless.Mind.2004.REMASTERED.1080p.BluRay.REMUX.AVC.DTS-HD.MA.5.1-FGT 31.41GB

Eternal.Sunshine.of.the.Spotless.Mind.2004.REMASTERED.1080p.BluRay.REMUX.AVC.DTS.torrent

39.98 KB, 下载次数: 1, 下载积分: 蓝光币 -2

回复

使用道具 举报

蓝光币
240
发表于 2022-8-1 21:47:01 | 显示全部楼层

这个帖子不回对不起自己!我想我是一天也不能离开蓝光电影网。
回复 支持 反对

使用道具 举报

懒得打字嘛,点击右侧快捷回复 【右侧内容,后台自定义】
您需要登录后才可以回帖 登录 | 立即加入

本版积分规则

Archiver|小黑屋| 蓝光电影网 |网站地图

Copyright © 2021 Comsenz Inc. Powered by 蓝光电影网

蓝光电影网

本站内容由用户自主分享和转载自互联网,转载目的在于传递更多信息,并不代表本网赞同其观点和对其真实性负责。

如有侵权、违反国家法律政策行为,请联系我们,我们会第一时间及时清除和处理!

举报反馈邮箱:[email protected]

快速回复 返回顶部 返回列表