找回密码

蓝光电影网

查看: 353|回复: 8

[2160p] 原始恐惧 Primal.2019.2160p.BluRay.x264.8bit.SDR.DTS-HD.MA.5.1-SWTYBLZ 23.03GB

[复制链接]
蓝光币
1082
发表于 2022-7-31 22:23:54 | 显示全部楼层 |阅读模式


◎标  题 原始恐惧
◎译  名 野性獵殺(台)
◎片  名 Primal
◎年  代 2019
◎产  地 美国
◎类  别 行动
◎语  言 英语
◎上映日期 2019-11-08(美国)
◎IMDb评分 4.9/10 (7516人评价)
◎IMDb链接 https://www.imdb.com/title/tt7394816/
◎豆瓣评分 5.4/10 (1284人评价)
◎豆瓣链接 https://movie.douban.com/subject/27139736/
◎片  长 97分钟
◎导  演 尼克·鲍威尔 Nick Powell
◎演  员 尼古拉斯·凯奇 Nicolas Cage
       法米克·詹森 Famke Janssen
       凯文·杜兰 Kevin Durand
       迈克尔·因佩里奥利 Michael Imperioli
       拉莫尼卡·加勒特 LaMonica Garrett
       雷·埃尔南德斯 Rey Hernandez
       汤姆·沃克 Tom Walker
       布赖恩·泰斯特 Brian Tester
       Braulio Castillo hijo Braulio Castillo hijo
◎标  签 尼古拉斯·凯奇 / 行动 / 美国 / 犯罪 / 2019 / 美国电影 / 动物 / 血腥
◎简  介

    弗兰克(尼古拉斯·凯奇 Nicolas Cage 饰)是一位大型动物禁猎区的治理员,这一次,他介入了一项很是危险的使命,那就是护送一艘载满了珍奇而又危险的大型动物的船只,从亚马逊驶往希腊。船上除了野活泼物外,还有更危险的生物存在,那就是老道而又狡猾的杀手劳夫乐(凯文·杜兰 Kevin Durand 饰)。                                                                      果不其然,在路程中,劳夫乐抛弃了负责看管他的差人,放出了关在牢笼里的凶悍而又致命的猛兽,一时之间,正艘汽船堕入了紊乱当中。身为负责人的弗兰克,不但要保证野活泼物们不被危险,也负担着船员们的人命,还要追捕危险的逃犯。
  1. Video
  2. ID                                       : 1
  3. Format                                   : AVC
  4. Format/Info                              : Advanced Video Codec
  5. Format profile                           : [email protected]
  6. Format settings                          : CABAC / 5 Ref Frames
  7. Format settings, CABAC                   : Yes
  8. Format settings, Reference frames        : 5 frames
  9. Codec ID                                 : V_MPEG4/ISO/AVC
  10. Duration                                 : 1 h 36 min
  11. Bit rate                                 : 29.4 Mb/s
  12. Width                                    : 3 840 pixels
  13. Height                                   : 1 606 pixels
  14. Display aspect ratio                     : 2.40:1
  15. Frame rate mode                          : Constant
  16. Frame rate                               : 23.976 (24000/1001/189150) FPS
  17. Color space                              : YUV
  18. Chroma subsampling                       : 4:2:0
  19. Bit depth                                : 8 bits
  20. Scan type                                : Progressive
  21. Bits/(Pixel*Frame)                       : 0.199
  22. Stream size                              : 19.9 GiB (87%)
  23. Writing library                          : x264 core 157 r2935 545de2f
  24. Encoding settings                        : cabac=1 / ref=5 / deblock=1:-1:-1 / analyse=0x3:0x113 / me=umh / subme=10 / psy=1 / psy_rd=1.00:0.15 / mixed_ref=1 / me_range=48 / chroma_me=1 / trellis=2 / 8x8dct=1 / cqm=0 / deadzone=21,11 / fast_pskip=1 / chroma_qp_offset=-3 / threads=48 / lookahead_threads=4 / sliced_threads=0 / nr=0 / decimate=0 / interlaced=0 / bluray_compat=0 / constrained_intra=0 / bframes=3 / b_pyramid=2 / b_adapt=2 / b_bias=0 / direct=3 / weightb=1 / open_gop=0 / weightp=2 / keyint=250 / keyint_min=23 / scenecut=40 / intra_refresh=0 / rc_lookahead=50 / rc=crf / mbtree=1 / crf=18.0 / qcomp=0.60 / qpmin=0 / qpmax=69 / qpstep=4 / ip_ratio=1.40 / aq=1:1.00
  25. Default                                  : Yes
  26. Forced                                   : No
  27. Audio #1
  28. ID                                       : 2
  29. ID in the original source medium         : 4352 (0x1100)
  30. Format                                   : DTS XLL
  31. Format/Info                              : Digital Theater Systems
  32. Commercial name                          : DTS-HD Master Audio
  33. Codec ID                                 : A_DTS
  34. Duration                                 : 1 h 36 min
  35. Bit rate mode                            : Variable
  36. Bit rate                                 : 3 824 kb/s
  37. Channel(s)                               : 6 channels
  38. Channel layout                           : C L R Ls Rs LFE
  39. Sampling rate                            : 48.0 kHz
  40. Frame rate                               : 93.750 FPS (512 SPF)
  41. Bit depth                                : 24 bits
  42. Compression mode                         : Lossless
  43. Stream size                              : 2.59 GiB (11%)
  44. Title                                    : DTS-HD MA 5.1
  45. Language                                 : English
  46. Default                                  : Yes
  47. Forced                                   : No
  48. Original source medium                   : Blu-ray
  49. Audio #2
  50. ID                                       : 3
  51. Format                                   : AC-3
  52. Format/Info                              : Audio Coding 3
  53. Commercial name                          : Dolby Digital
  54. Codec ID                                 : A_AC3
  55. Duration                                 : 1 h 36 min
  56. Bit rate mode                            : Constant
  57. Bit rate                                 : 640 kb/s
  58. Channel(s)                               : 6 channels
  59. Channel layout                           : L R C LFE Ls Rs
  60. Sampling rate                            : 48.0 kHz
  61. Frame rate                               : 31.250 FPS (1536 SPF)
  62. Compression mode                         : Lossy
  63. Stream size                              : 443 MiB (2%)
  64. Title                                    : DD 5.1
  65. Language                                 : English
  66. Service kind                             : Complete Main
  67. Default                                  : No
  68. Forced                                   : No
  69. Text #1
  70. ID                                       : 4
  71. Format                                   : UTF-8
  72. Codec ID                                 : S_TEXT/UTF8
  73. Codec ID/Info                            : UTF-8 Plain Text
  74. Duration                                 : 1 h 36 min
  75. Bit rate                                 : 47 b/s
  76. Frame rate                               : 0.172 FPS
  77. Count of elements                        : 1001
  78. Stream size                              : 33.4 KiB (0%)
  79. Language                                 : English
  80. Default                                  : Yes
  81. Forced                                   : No
  82. Text #2
  83. ID                                       : 5
  84. Format                                   : UTF-8
  85. Codec ID                                 : S_TEXT/UTF8
  86. Codec ID/Info                            : UTF-8 Plain Text
  87. Duration                                 : 1 h 36 min
  88. Bit rate                                 : 52 b/s
  89. Frame rate                               : 0.202 FPS
  90. Count of elements                        : 1175
  91. Stream size                              : 37.1 KiB (0%)
  92. Title                                    : SDH
  93. Language                                 : English
  94. Default                                  : No
  95. Forced                                   : No
  96. Text #3
  97. ID                                       : 6
  98. ID in the original source medium         : 4768 (0x12A0)
  99. Format                                   : PGS
  100. Muxing mode                              : zlib
  101. Codec ID                                 : S_HDMV/PGS
  102. Codec ID/Info                            : Picture based subtitle format used on BDs/HD-DVDs
  103. Duration                                 : 1 h 36 min
  104. Bit rate                                 : 31.4 kb/s
  105. Frame rate                               : 0.405 FPS
  106. Count of elements                        : 2352
  107. Stream size                              : 21.7 MiB (0%)
  108. Language                                 : English
  109. Default                                  : No
  110. Forced                                   : No
  111. Original source medium                   : Blu-ray
  112. Text #4
  113. ID                                       : 7
  114. ID in the original source medium         : 4769 (0x12A1)
  115. Format                                   : PGS
  116. Muxing mode                              : zlib
  117. Codec ID                                 : S_HDMV/PGS
  118. Codec ID/Info                            : Picture based subtitle format used on BDs/HD-DVDs
  119. Duration                                 : 1 h 31 min
  120. Bit rate                                 : 26.6 kb/s
  121. Frame rate                               : 0.361 FPS
  122. Count of elements                        : 1976
  123. Stream size                              : 17.3 MiB (0%)
  124. Language                                 : Spanish
  125. Default                                  : No
  126. Forced                                   : No
  127. Original source medium                   : Blu-ray
  128. Menu
  129. 00:00:00.000                             : en:Chapter 01
  130. 00:10:00.933                             : en:Chapter 02
  131. 00:20:01.533                             : en:Chapter 03
  132. 00:30:01.966                             : en:Chapter 04
  133. 00:40:05.736                             : en:Chapter 05
  134. 00:50:03.583                             : en:Chapter 06
  135. 01:00:04.058                             : en:Chapter 07
  136. 01:10:04.992                             : en:Chapter 08
  137. 01:20:05.258                             : en:Chapter 09
  138. 01:30:05.525                             : en:Chapter 10
  139. 01:32:27.542                             : en:Chapter 11
复制代码




                                       
                                       

                                       
                                       
                                       




回复

使用道具 举报

蓝光币
28
发表于 2022-7-31 23:19:35 | 显示全部楼层
谢谢楼主分享
回复 支持 反对

使用道具 举报

蓝光币
534
发表于 2022-8-1 07:15:46 | 显示全部楼层

这个帖子不回对不起自己!我想我是一天也不能离开蓝光电影网。
回复 支持 反对

使用道具 举报

蓝光币
192
发表于 2022-8-1 09:27:35 | 显示全部楼层

我看不错噢 谢谢楼主!蓝光电影网越来越好!
回复 支持 反对

使用道具 举报

蓝光币
36
发表于 2022-8-1 10:23:43 | 显示全部楼层
盖楼盖楼盖楼
回复 支持 反对

使用道具 举报

蓝光币
67
发表于 2022-8-1 11:21:48 | 显示全部楼层

~ 珍惜+支持 ~
回复

使用道具 举报

蓝光币
226
发表于 2022-8-1 12:52:11 | 显示全部楼层

既然你诚信诚意的推荐了,那我就勉为其难的看看吧!蓝光电影网不走平凡路。
回复 支持 反对

使用道具 举报

蓝光币
1
发表于 2022-8-1 15:42:44 | 显示全部楼层

楼主太厉害了!楼主,电影应该很好看我觉得蓝光电影网真是个好地方!
回复 支持 反对

使用道具 举报

蓝光币
6
发表于 2022-8-1 16:51:13 | 显示全部楼层

感谢楼主的无私分享!要想蓝光电影网好 就靠你我他
回复 支持 反对

使用道具 举报

懒得打字嘛,点击右侧快捷回复 【右侧内容,后台自定义】
您需要登录后才可以回帖 登录 | 立即加入

本版积分规则

Archiver|小黑屋| 蓝光电影网 |网站地图

Copyright © 2021 Comsenz Inc. Powered by 蓝光电影网

蓝光电影网

本站内容由用户自主分享和转载自互联网,转载目的在于传递更多信息,并不代表本网赞同其观点和对其真实性负责。

如有侵权、违反国家法律政策行为,请联系我们,我们会第一时间及时清除和处理!

举报反馈邮箱:[email protected]

快速回复 返回顶部 返回列表