找回密码

蓝光电影网

查看: 152|回复: 1

[喜剧] 五个相扑的少年 Sumo.Do.Sumo.Dont.1992.JAPANESE.1080p.BluRay.x264.DD5.1-PTer 17.30GB

[复制链接]
蓝光币
1022
发表于 2022-7-31 22:57:26 | 显示全部楼层 |阅读模式


◎标  题 五个相扑的少年
◎译  名 Sumo Do /  Sumo Don't / 大相扑
◎片  名 シコふんじゃった。
◎年  代 1992
◎产  地 日本
◎类  别 笑剧 / 活动
◎语  言 日语
◎上映日期 1992-01-15(日本)
◎IMDb评分 7.2/10 (848人评价)
◎IMDb链接 https://www.imdb.com/title/tt0105388/
◎豆瓣评分 7.8/10 (3347人评价)
◎豆瓣链接 https://movie.douban.com/subject/1302178/
◎片  长 105分钟
◎导  演 周防正行 Masayuki Suo
◎编  剧 周防正行 Masayuki Suo
◎演  员 本木雅弘 Masahiro Motoki
       清水美沙 Misa Shimizu
       竹中直人 Naoto Takenaka
       田口浩正 Hiromasa Taguchi
       罗伯特·霍夫曼 Robert Hoffman
       柄本明 Akira Emoto
       矢泽由美 Kaori Mizushima
       酒井健太郎 Kentarô Sakai
       宝井诚明 Masaaki Takarai
       松田优 Masaru Matsuda
       宫坂广 Hiroshi Miyasaka
       六平直政 Naomasa Musaka
       村上冬树 Fuyuki Murakami
       樱睦子 Mutsuko Sakura
       宫田早苗 Sanae Miyata
       周防义和 Yoshikazu Suo
       栢野直樹 Naoki Kayano
       菊池純一 Jun'ichi Kikuchi
       部谷京子 Kyôko Heya
◎简  介

  教立大学社会学系四年级门生山本秋平(本木雅弘饰)行将结业,却被结业论文指导教授兼大学相扑部顾问的穴山(柄本明饰)找去,说他缺课太多不能赐与学分,除非他愿意加入大学相扑部。                                    
                                秋平别无挑选,相扑部里只要一个留级多年、身段薄弱的青木(竹中直人饰),相继入伙的几小我情况各异:胖子田中是虔敬的基督徒;大一新生春雄是秋平的弟弟,他的到来纯属被逼无法。仓皇成军的他们在角逐中连连失利,引来众人嘲笑唾骂。                                    
                                面临嘲笑,他们起头认真练习,希望鄙人次角逐中获得好成就,英国留门生斯迈利也加入了相扑部,他们五人将走上什么样的门路呢?
  1. Video
  2. ID                                       : 1
  3. Format                                   : AVC
  4. Format/Info                              : Advanced Video Codec
  5. Format profile                           : [email protected]
  6. Format settings                          : CABAC / 4 Ref Frames
  7. Format settings, CABAC                   : Yes
  8. Format settings, Reference frames        : 4 frames
  9. Codec ID                                 : V_MPEG4/ISO/AVC
  10. Duration                                 : 1 h 43 min
  11. Bit rate                                 : 22.5 Mb/s
  12. Width                                    : 1 920 pixels
  13. Height                                   : 1 038 pixels
  14. Display aspect ratio                     : 1.85:1
  15. Frame rate mode                          : Constant
  16. Frame rate                               : 23.976 (24000/1001/189150) FPS
  17. Color space                              : YUV
  18. Chroma subsampling                       : 4:2:0
  19. Bit depth                                : 8 bits
  20. Scan type                                : Progressive
  21. Bits/(Pixel*Frame)                       : 0.471
  22. Stream size                              : 16.2 GiB (94%)
  23. Writing library                          : x264 core 164 r3075+55M 97d28bb t_mod_New [(8 & 10)[email protected] X86_64]
  24. Encoding settings                        : cabac=1 / ref=4 / deblock=1:-3:-3 / analyse=0x3:0x133 / me=umh / subme=11 / psy=1 / fade_compensate=0.00 / psy_rd=0.95:0.00 / mixed_ref=1 / me_range=48 / chroma_me=1 / trellis=2 / 8x8dct=1 / cqm=0 / deadzone=21,11 / fast_pskip=0 / chroma_qp_offset=-2 / threads=30 / lookahead_threads=7 / sliced_threads=0 / nr=0 / decimate=0 / interlaced=0 / bluray_compat=0 / constrained_intra=0 / fgo=0 / bframes=16 / b_pyramid=2 / b_adapt=2 / b_bias=0 / direct=3 / weightb=1 / open_gop=0 / weightp=2 / keyint=250 / keyint_min=23 / scenecut=40 / intra_refresh=0 / rc_lookahead=60 / rc=crf / mbtree=0 / crf=20.3000 / qcomp=0.60 / qpmin=0:0:0 / qpmax=69:69:69 / qpstep=4 / vbv_maxrate=62500 / vbv_bufsize=78125 / crf_max=0.0 / nal_hrd=none / filler=0 / ip_ratio=1.40 / pb_ratio=1.30 / aq=3:0.65 / aq-sensitivity=10.00 / aq-factor=1.00:1.00:1.00 / aq2=0 / aq3=0
  25. Language                                 : Japanese
  26. Default                                  : Yes
  27. Forced                                   : No
  28. Audio #1
  29. ID                                       : 2
  30. Format                                   : E-AC-3
  31. Format/Info                              : Enhanced AC-3
  32. Commercial name                          : Dolby Digital Plus
  33. Codec ID                                 : A_EAC3
  34. Duration                                 : 1 h 43 min
  35. Bit rate mode                            : Constant
  36. Bit rate                                 : 1 024 kb/s
  37. Channel(s)                               : 6 channels
  38. Channel layout                           : L R C LFE Ls Rs
  39. Sampling rate                            : 48.0 kHz
  40. Frame rate                               : 31.250 FPS (1536 SPF)
  41. Compression mode                         : Lossy
  42. Stream size                              : 758 MiB (4%)
  43. Language                                 : Japanese
  44. Service kind                             : Complete Main
  45. Default                                  : Yes
  46. Forced                                   : No
  47. Audio #2
  48. ID                                       : 3
  49. Format                                   : FLAC
  50. Format/Info                              : Free Lossless Audio Codec
  51. Codec ID                                 : A_FLAC
  52. Duration                                 : 1 h 43 min
  53. Bit rate mode                            : Variable
  54. Bit rate                                 : 354 kb/s
  55. Channel(s)                               : 2 channels
  56. Channel layout                           : L R
  57. Sampling rate                            : 48.0 kHz
  58. Frame rate                               : 11.719 FPS (4096 SPF)
  59. Bit depth                                : 16 bits
  60. Compression mode                         : Lossless
  61. Stream size                              : 262 MiB (1%)
  62. Writing library                          : libFLAC 1.2.1 (UTC 2007-09-17)
  63. Language                                 : Japanese
  64. Default                                  : No
  65. Forced                                   : No
  66. Audio #3
  67. ID                                       : 4
  68. Format                                   : AAC LC
  69. Format/Info                              : Advanced Audio Codec Low Complexity
  70. Codec ID                                 : A_AAC-2
  71. Duration                                 : 1 h 43 min
  72. Bit rate                                 : 78.8 kb/s
  73. Channel(s)                               : 2 channels
  74. Channel layout                           : L R
  75. Sampling rate                            : 48.0 kHz
  76. Frame rate                               : 46.875 FPS (1024 SPF)
  77. Compression mode                         : Lossy
  78. Stream size                              : 58.3 MiB (0%)
  79. Title                                    : Commentary by director Masayuki Suo
  80. Language                                 : Japanese
  81. Default                                  : No
  82. Forced                                   : No
  83. Text #1
  84. ID                                       : 5
  85. Format                                   : UTF-8
  86. Codec ID                                 : S_TEXT/UTF8
  87. Codec ID/Info                            : UTF-8 Plain Text
  88. Duration                                 : 1 h 40 min
  89. Bit rate                                 : 36 b/s
  90. Frame rate                               : 0.181 FPS
  91. Count of elements                        : 1091
  92. Stream size                              : 26.8 KiB (0%)
  93. Language                                 : English
  94. Default                                  : No
  95. Forced                                   : No
  96. Text #2
  97. ID                                       : 6
  98. Format                                   : UTF-8
  99. Codec ID                                 : S_TEXT/UTF8
  100. Codec ID/Info                            : UTF-8 Plain Text
  101. Duration                                 : 1 h 40 min
  102. Bit rate                                 : 37 b/s
  103. Frame rate                               : 0.175 FPS
  104. Count of elements                        : 1056
  105. Stream size                              : 27.5 KiB (0%)
  106. Title                                    : Simplified Chinese
  107. Language                                 : Chinese
  108. Default                                  : No
  109. Forced                                   : No
  110. Text #3
  111. ID                                       : 7
  112. Format                                   : UTF-8
  113. Codec ID                                 : S_TEXT/UTF8
  114. Codec ID/Info                            : UTF-8 Plain Text
  115. Duration                                 : 1 h 40 min
  116. Bit rate                                 : 37 b/s
  117. Frame rate                               : 0.175 FPS
  118. Count of elements                        : 1056
  119. Stream size                              : 27.5 KiB (0%)
  120. Title                                    : Traditional Chinese
  121. Language                                 : Chinese
  122. Default                                  : No
  123. Forced                                   : No
  124. Menu
  125. 00:00:00.000                             : en:Opening
  126. 00:02:06.460                             : en:Season sports lovers
  127. 00:03:20.534                             : en:Graduation conditions
  128. 00:06:32.517                             : en:To the sumo club
  129. 00:10:57.657                             : en:Solicitation strategy
  130. 00:14:49.472                             : en:New members, one after another
  131. 00:17:22.541                             : en:Championship day
  132. 00:26:46.855                             : en:Tense alumni meeting
  133. 00:30:19.651                             : en:Road to resurrection
  134. 00:37:00.760                             : en:New manager
  135. 00:41:48.381                             : en:The limit that began to appear
  136. 00:47:33.976                             : en:Training camp, each thought
  137. 00:55:31.870                             : en:The secret of sumo
  138. 01:01:53.126                             : en:Hard practice
  139. 01:04:12.432                             : en:On the day of the league match
  140. 01:05:54.284                             : en:Honjitsu Medical University vs. Kyoritsu University
  141. 01:10:46.033                             : en:University of Tsukuba vs Kyoritsu University
  142. 01:11:22.904                             : en:Defense University vs. Kyoritsu University
  143. 01:12:06.405                             : en:Okei University vs. Kyoritsu University
  144. 01:13:03.379                             : en:Hokuto Gakuin University vs. Kyoritsu University
  145. 01:21:45.192                             : en:Maiden\'s big decision
  146. 01:25:55.817                             : en:Relegation, Daitoa University vs. Kyoritsu University
  147. 01:33:09.501                             : en:Last best
  148. 01:36:13.309                             : en:Each road
  149. 01:39:01.352                             : en:Sumo Do, Sumo Don\'t
  150. 01:40:34.070                             : en:Ending
复制代码




                                       
                                       

                                       
                                       
                                       




回复

使用道具 举报

蓝光币
73
发表于 2022-8-1 07:27:29 来自手机 | 显示全部楼层
经典日影 谢谢分享
回复 支持 反对

使用道具 举报

懒得打字嘛,点击右侧快捷回复 【右侧内容,后台自定义】
您需要登录后才可以回帖 登录 | 立即加入

本版积分规则

Archiver|小黑屋| 蓝光电影网 |网站地图

Copyright © 2021 Comsenz Inc. Powered by 蓝光电影网

蓝光电影网

本站内容由用户自主分享和转载自互联网,转载目的在于传递更多信息,并不代表本网赞同其观点和对其真实性负责。

如有侵权、违反国家法律政策行为,请联系我们,我们会第一时间及时清除和处理!

举报反馈邮箱:[email protected]

快速回复 返回顶部 返回列表