找回密码

蓝光电影网

查看: 35|回复: 1

[喜剧] 耀武扬威 The.January.Man.1989.iNTERNAL.720p.BluRay.x264-YAMG 5.24GB

[复制链接]
蓝光币
886
发表于 2022-8-1 08:58:17 | 显示全部楼层 |阅读模式


◎译  名 张牙舞爪 / 一月凶案
◎片  名 The January Man
◎年  代 1989
◎产  地 美国
◎类  别 笑剧 / 行动 / 恋爱 / 悬疑 / 惊悚 / 犯罪
◎语  言 英语
◎上映日期 1989-01-13
◎IMDb链接 https://www.imdb.com/title/tt0097613/
◎豆瓣评分 6.7/10 (135人评价)
◎豆瓣链接 https://movie.douban.com/subject/1301521/
◎片  长 97 分钟
◎导  演 帕特·奥康纳 Pat O'Connor (id:1293396)
◎编  剧 约翰·帕特里克·尚利 John Patrick Shanley (id:1027510)
◎演  员 凯文·克莱恩 Kevin Kline (id:1040531)
       苏珊·萨兰登 Susan Sarandon (id:1054392)
       玛丽·伊丽莎白·马斯特兰托尼奥 Mary Elizabeth Mastrantonio (id:1040552)
       哈威·凯特尔 Harvey Keitel (id:1048131)
       丹尼·爱罗 Danny Aiello (id:1019050)
       罗德·斯泰格尔 Rod Steiger (id:1002747)
       艾伦·瑞克曼 Alan Rickman (id:1025153)
       Billie Neal Billie Neal (id:1128149)
       Jerry Rector Jerry Rector (id:1145205)
       格兰特·肖德 Grant Shaud (id:1147465)
       杰拉德·帕克斯 Gerard Parkes (id:1294003)
       Lázaro Pérez Lázaro Pérez (id:1148438)
       安·塔尔曼 Ann Talman (id:1150351)
       布赖恩·塔伦蒂诺 Brian Tarantina (id:1158948)
       马拉奇·麦考特 Malachy McCourt (id:1122473)
       比尔·奎考斯基 Bill Cwikowski (id:1075057)
       Harmony Cramp Harmony Cramp (id:1074984)
       菲·格兰特 Faye Grant (id:1009432)
       比尔·考布斯 Bill Cobbs (id:1019099)
       柯林·莫齐里 Colin Mochrie (id:1036584)
       坦迪·克罗宁 Tandy Cronyn (id:1070993)
       William Christian William Christian (id:1074360)
       肯尼斯·威尔什 Kenneth Welsh (id:1000382)
       诺曼·杰威森 Norman Jewison (id:1010709)
       马文·哈姆利奇 Marvin Hamlisch (id:1019195)
       Jerzy Zielinski Jerzy Zielinski (id:1015004)
       Lou Lombardo Lou Lombardo (id:1008350)
       里萨·布雷蒙·加西亚 Risa Bramon Garcia (id:1284503)
       比利·霍普金斯 Billy Hopkins (id:1054463)
       菲利普·罗森伯格 Philip Rosenberg (id:1146904)
       Dan Davis Dan Davis (id:1281903)
       安·罗斯 Ann Roth (id:1041745)
       Patricia Green Patricia Green (id:1285372)
       大卫·萨迪 David Sardi (id:1296704)
◎简  介

  Nick and Frank Starkey were both policemen. A scandal forced Nick to leave the force, now a serial killer has driven the police to take him back. A web that includes Frank's wife, bribery, and corruption all are in the background as Nick tries to uncover the secret of where the killer will strike next, and finally must lay a trap without the police.
  1. Video
  2. ID                                       : 1
  3. Format                                   : AVC
  4. Format/Info                              : Advanced Video Codec
  5. Format profile                           : [email protected]
  6. Format settings                          : CABAC / 9 Ref Frames
  7. Format settings, CABAC                   : Yes
  8. Format settings, Reference frames        : 9 frames
  9. Codec ID                                 : V_MPEG4/ISO/AVC
  10. Duration                                 : 1 h 37 min
  11. Bit rate                                 : 7 182 kb/s
  12. Width                                    : 1 280 pixels
  13. Height                                   : 692 pixels
  14. Display aspect ratio                     : 1.85:1
  15. Frame rate mode                          : Constant
  16. Frame rate                               : 23.976 (24000/1001/189150) FPS
  17. Color space                              : YUV
  18. Chroma subsampling                       : 4:2:0
  19. Bit depth                                : 8 bits
  20. Scan type                                : Progressive
  21. Bits/(Pixel*Frame)                       : 0.338
  22. Stream size                              : 4.88 GiB (93%)
  23. Writing library                          : x264 core 164 r3094 bfc87b7
  24. Encoding settings                        : cabac=1 / ref=9 / deblock=1:-3:-3 / analyse=0x3:0x133 / me=umh / subme=10 / psy=1 / psy_rd=1.00:0.00 / mixed_ref=1 / me_range=32 / chroma_me=1 / trellis=2 / 8x8dct=1 / cqm=0 / deadzone=21,11 / fast_pskip=0 / chroma_qp_offset=-2 / threads=22 / lookahead_threads=3 / sliced_threads=0 / nr=0 / decimate=0 / interlaced=0 / bluray_compat=0 / constrained_intra=0 / bframes=8 / b_pyramid=2 / b_adapt=2 / b_bias=0 / direct=3 / weightb=1 / open_gop=0 / weightp=2 / keyint=250 / keyint_min=23 / scenecut=40 / intra_refresh=0 / rc=crf / mbtree=0 / crf=17.0 / qcomp=0.60 / qpmin=0 / qpmax=69 / qpstep=4 / ip_ratio=1.40 / pb_ratio=1.30 / aq=3:0.60
  25. Language                                 : English
  26. Default                                  : Yes
  27. Forced                                   : No
  28. Color range                              : Limited
  29. Matrix coefficients                      : BT.709

  30. Audio
  31. ID                                       : 2
  32. Format                                   : FLAC
  33. Format/Info                              : Free Lossless Audio Codec
  34. Codec ID                                 : A_FLAC
  35. Duration                                 : 1 h 37 min
  36. Bit rate mode                            : Variable
  37. Bit rate                                 : 525 kb/s
  38. Channel(s)                               : 2 channels
  39. Channel layout                           : L R
  40. Sampling rate                            : 48.0 kHz
  41. Frame rate                               : 11.719 FPS (4096 SPF)
  42. Bit depth                                : 16 bits
  43. Compression mode                         : Lossless
  44. Stream size                              : 365 MiB (7%)
  45. Title                                    : English
  46. Writing library                          : libFLAC 1.3.3 (UTC 2019-08-04)
  47. Language                                 : English
  48. Default                                  : Yes
  49. Forced                                   : No

  50. Text #1
  51. ID                                       : 3
  52. Format                                   : UTF-8
  53. Codec ID                                 : S_TEXT/UTF8
  54. Codec ID/Info                            : UTF-8 Plain Text
  55. Duration                                 : 1 h 32 min
  56. Bit rate                                 : 48 b/s
  57. Count of elements                        : 1263
  58. Stream size                              : 32.8 KiB (0%)
  59. Title                                    : English
  60. Language                                 : English
  61. Default                                  : No
  62. Forced                                   : No

  63. Text #2
  64. ID                                       : 4
  65. Format                                   : PGS
  66. Muxing mode                              : zlib
  67. Codec ID                                 : S_HDMV/PGS
  68. Codec ID/Info                            : Picture based subtitle format used on BDs/HD-DVDs
  69. Duration                                 : 1 h 32 min
  70. Bit rate                                 : 30.8 kb/s
  71. Count of elements                        : 2530
  72. Stream size                              : 20.4 MiB (0%)
  73. Title                                    : English PGS
  74. Language                                 : English
  75. Default                                  : No
  76. Forced                                   : No

  77. Menu
  78. 00:00:00.000                             : :Chapter 01
  79. 00:11:03.079                             : :Chapter 02
  80. 00:20:21.178                             : :Chapter 03
  81. 00:34:56.636                             : :Chapter 04
  82. 00:49:19.874                             : :Chapter 05
  83. 00:59:45.582                             : :Chapter 06
  84. 01:12:11.160                             : :Chapter 07
  85. 01:22:19.268                             : :Chapter 08
复制代码





                                       
                                       

                                       
                                       
                                       




回复

使用道具 举报

蓝光币
37
发表于 5 天前 | 显示全部楼层
楼主发贴辛苦了,谢谢楼主分享!我觉得蓝光电影网是注册对了!
回复 支持 反对

使用道具 举报

懒得打字嘛,点击右侧快捷回复 【右侧内容,后台自定义】
您需要登录后才可以回帖 登录 | 立即加入

本版积分规则

Archiver|小黑屋| 蓝光电影网 |网站地图

Copyright © 2021 Comsenz Inc. Powered by 蓝光电影网

蓝光电影网

本站内容由用户自主分享和转载自互联网,转载目的在于传递更多信息,并不代表本网赞同其观点和对其真实性负责。

如有侵权、违反国家法律政策行为,请联系我们,我们会第一时间及时清除和处理!

举报反馈邮箱:[email protected]

快速回复 返回顶部 返回列表