找回密码

蓝光电影网

查看: 127|回复: 0

[剧情] 京城81号2 The.House.That.Never.Dies.II.2017.720p.BluRay.x264-YAMG 2.82GB

[复制链接]
蓝光币
1022
发表于 2022-8-1 08:31:26 | 显示全部楼层 |阅读模式


◎译  名 都城81号2 / The House That Never Dies Ⅱ
◎片  名 都城81号Ⅱ
◎年  代 2017
◎产  地 中国大陆
◎类  别 剧情 / 悬疑 / 惊悚
◎语  言 汉语普通话
◎上映日期 2017-07-06(中国大陆)
◎IMDb链接 https://www.imdb.com/title/tt7627782/
◎豆瓣评分 3.7/10 (27908人评价)
◎豆瓣链接 https://movie.douban.com/subject/26662798/
◎片  长 98分钟
◎导  演 钱人豪 Jen-hao Chie (id:1315203)
◎编  剧 谭广源 Frankie Tam (id:1328638)
       蔡骏 Jun Cai (id:1357898)
       黄慧惠 Huihui Huang (id:1375170)
◎演  员 张智霖 Julian Cheung (id:1050979)
       梅婷 Ting Mei (id:1047083)
       钟欣潼 Gillian Chung (id:1005138)
       耿乐 Le Geng (id:1274576)
       邬君梅 Vivian Wu (id:1004773)
       王水林 Shuilin Wang (id:1318538)
       陈冲 Joan Chen (id:1044964)
       高捷 Jack Kao (id:1276076)
       林雪 Suet Lam (id:1274279)
       连凯 Andrew Lin (id:1122837)
       万国鹏 Guopeng Wan (id:1350013)
       迈克·安吉洛 Mike Angelo (id:1332107)
       冯岚 Lan Feng (id:1424004)
       岳野 Ye Yue (id:1368213)
         (id:1428097)
       王羿鹍 Yikun Wang (id:1400037)
       陈嘉上 Gordon Chan (id:1274245)
       龚宇 Yu Gong (id:1406734)
       郑海涛 Haitao Zheng (id:1457073)
       黄翔 Xiang Huang (id:1457072)
       何罡 Gang He (id:1430081)
       林朝阳 Chaoyang Lin (id:1426070)
       罗乐 Le Luo (id:1464484)
       费玉清 Yu-Ching Fei (id:1339426)
       范文怡 Wen-I. Fan (id:1457074)
       李昭桦 Charles Lee (id:1352759)
◎简  介

  《都城81号2》取材自东方四大鬼宅之首的都城81号地宫实在故事。                                    
                                民国末期,正逢浊世,都城军阀哗变,少帅张骘生(张智霖 饰)被逼迎娶雄师阀之女纪金翠(钟欣潼 饰),随即府内怪事丛生,民气惶惑。未几后都城出现多量“尸婴案”,一切锋芒指向少帅原配夫人钮梦鹤(梅婷 饰),随后 钮梦鹤古怪失落,一夜之间都城81号惨遭灭门,留下一座破败鬼宅。                                    
                                百年后,文物修复师宋腾在修复古宅进程中挖出大量婴儿骸骨与诡异符咒,一桩桩血淋淋的往事似乎要将一切人拉进深渊,宿世今生的恩怨情仇都逐一显现,而地宫冤魂鬼门索命的故事也就此拉开……
  1. Video
  2. ID                                       : 1
  3. Format                                   : AVC
  4. Format/Info                              : Advanced Video Codec
  5. Format profile                           : [email protected]
  6. Format settings                          : CABAC / 12 Ref Frames
  7. Format settings, CABAC                   : Yes
  8. Format settings, Reference frames        : 12 frames
  9. Codec ID                                 : V_MPEG4/ISO/AVC
  10. Duration                                 : 1 h 37 min
  11. Bit rate                                 : 2 837 kb/s
  12. Width                                    : 1 280 pixels
  13. Height                                   : 536 pixels
  14. Display aspect ratio                     : 2.40:1
  15. Frame rate mode                          : Constant
  16. Frame rate                               : 24.000 FPS
  17. Color space                              : YUV
  18. Chroma subsampling                       : 4:2:0
  19. Bit depth                                : 8 bits
  20. Scan type                                : Progressive
  21. Bits/(Pixel*Frame)                       : 0.172
  22. Stream size                              : 1.93 GiB (68%)
  23. Writing library                          : x264 core 164 r3065 ae03d92
  24. Encoding settings                        : cabac=1 / ref=12 / deblock=1:-3:-3 / analyse=0x3:0x133 / me=umh / subme=10 / psy=1 / psy_rd=1.00:0.00 / mixed_ref=1 / me_range=32 / chroma_me=1 / trellis=2 / 8x8dct=1 / cqm=0 / deadzone=21,11 / fast_pskip=0 / chroma_qp_offset=-2 / threads=17 / lookahead_threads=2 / sliced_threads=0 / nr=0 / decimate=0 / interlaced=0 / bluray_compat=0 / constrained_intra=0 / bframes=8 / b_pyramid=2 / b_adapt=2 / b_bias=0 / direct=3 / weightb=1 / open_gop=0 / weightp=2 / keyint=250 / keyint_min=24 / scenecut=40 / intra_refresh=0 / rc=crf / mbtree=0 / crf=17.0 / qcomp=0.60 / qpmin=0 / qpmax=69 / qpstep=4 / ip_ratio=1.40 / pb_ratio=1.30 / aq=3:0.60
  25. Language                                 : English
  26. Default                                  : Yes
  27. Forced                                   : No
  28. Color range                              : Limited
  29. Matrix coefficients                      : BT.709

  30. Audio #1
  31. ID                                       : 2
  32. Format                                   : AC-3
  33. Format/Info                              : Audio Coding 3
  34. Commercial name                          : Dolby Digital
  35. Codec ID                                 : A_AC3
  36. Duration                                 : 1 h 37 min
  37. Bit rate mode                            : Constant
  38. Bit rate                                 : 640 kb/s
  39. Channel(s)                               : 6 channels
  40. Channel layout                           : L R C LFE Ls Rs
  41. Sampling rate                            : 48.0 kHz
  42. Frame rate                               : 31.250 FPS (1536 SPF)
  43. Compression mode                         : Lossy
  44. Stream size                              : 446 MiB (15%)
  45. Title                                    : Mandarin
  46. Language                                 : Chinese
  47. Service kind                             : Complete Main
  48. Default                                  : Yes
  49. Forced                                   : No

  50. Audio #2
  51. ID                                       : 3
  52. Format                                   : AC-3
  53. Format/Info                              : Audio Coding 3
  54. Commercial name                          : Dolby Digital
  55. Codec ID                                 : A_AC3
  56. Duration                                 : 1 h 37 min
  57. Bit rate mode                            : Constant
  58. Bit rate                                 : 640 kb/s
  59. Channel(s)                               : 6 channels
  60. Channel layout                           : L R C LFE Ls Rs
  61. Sampling rate                            : 48.0 kHz
  62. Frame rate                               : 31.250 FPS (1536 SPF)
  63. Compression mode                         : Lossy
  64. Stream size                              : 446 MiB (15%)
  65. Title                                    : Cantonese
  66. Language                                 : Chinese
  67. Service kind                             : Complete Main
  68. Default                                  : No
  69. Forced                                   : No

  70. Text #1
  71. ID                                       : 4
  72. Format                                   : UTF-8
  73. Codec ID                                 : S_TEXT/UTF8
  74. Codec ID/Info                            : UTF-8 Plain Text
  75. Duration                                 : 1 h 29 min
  76. Bit rate                                 : 38 b/s
  77. Count of elements                        : 1134
  78. Stream size                              : 25.6 KiB (0%)
  79. Title                                    : English Forced
  80. Language                                 : English
  81. Default                                  : Yes
  82. Forced                                   : Yes

  83. Text #2
  84. ID                                       : 5
  85. Format                                   : PGS
  86. Muxing mode                              : zlib
  87. Codec ID                                 : S_HDMV/PGS
  88. Codec ID/Info                            : Picture based subtitle format used on BDs/HD-DVDs
  89. Duration                                 : 1 h 29 min
  90. Bit rate                                 : 25.8 kb/s
  91. Count of elements                        : 1875
  92. Stream size                              : 16.6 MiB (1%)
  93. Title                                    : English Forced PGS
  94. Language                                 : English
  95. Default                                  : No
  96. Forced                                   : No

  97. Text #3
  98. ID                                       : 6
  99. Format                                   : PGS
  100. Muxing mode                              : zlib
  101. Codec ID                                 : S_HDMV/PGS
  102. Codec ID/Info                            : Picture based subtitle format used on BDs/HD-DVDs
  103. Duration                                 : 1 h 29 min
  104. Bit rate                                 : 21.7 kb/s
  105. Count of elements                        : 1870
  106. Stream size                              : 13.9 MiB (0%)
  107. Title                                    : Traditional Chinese PGS
  108. Language                                 : Chinese
  109. Default                                  : No
  110. Forced                                   : No

  111. Text #4
  112. ID                                       : 7
  113. Format                                   : PGS
  114. Muxing mode                              : zlib
  115. Codec ID                                 : S_HDMV/PGS
  116. Codec ID/Info                            : Picture based subtitle format used on BDs/HD-DVDs
  117. Duration                                 : 1 h 29 min
  118. Bit rate                                 : 20.2 kb/s
  119. Count of elements                        : 1870
  120. Stream size                              : 12.9 MiB (0%)
  121. Title                                    : Simplified Chinese PGS
  122. Language                                 : Chinese
  123. Default                                  : No
  124. Forced                                   : No

  125. Menu
  126. 00:00:00.000                             : Chapter 01
  127. 00:04:16.625                             : Chapter 02
  128. 00:07:31.583                             : Chapter 03
  129. 00:11:31.167                             : Chapter 04
  130. 00:15:59.750                             : Chapter 05
  131. 00:21:14.750                             : Chapter 06
  132. 00:24:52.708                             : Chapter 07
  133. 00:31:29.125                             : Chapter 08
  134. 00:36:25.625                             : Chapter 09
  135. 00:41:11.542                             : Chapter 10
  136. 00:44:08.250                             : Chapter 11
  137. 00:48:30.333                             : Chapter 12
  138. 00:52:45.542                             : Chapter 13
  139. 00:57:20.542                             : Chapter 14
  140. 01:03:36.625                             : Chapter 15
  141. 01:09:24.083                             : Chapter 16
  142. 01:12:48.417                             : Chapter 17
  143. 01:16:41.042                             : Chapter 18
  144. 01:21:49.625                             : Chapter 19
  145. 01:30:28.500                             : Chapter 20
复制代码





                                       
                                       

                                       
                                       
                                       




回复

使用道具 举报

懒得打字嘛,点击右侧快捷回复 【右侧内容,后台自定义】
您需要登录后才可以回帖 登录 | 立即加入

本版积分规则

Archiver|小黑屋| 蓝光电影网 |网站地图

Copyright © 2021 Comsenz Inc. Powered by 蓝光电影网

蓝光电影网

本站内容由用户自主分享和转载自互联网,转载目的在于传递更多信息,并不代表本网赞同其观点和对其真实性负责。

如有侵权、违反国家法律政策行为,请联系我们,我们会第一时间及时清除和处理!

举报反馈邮箱:[email protected]

快速回复 返回顶部 返回列表