找回密码

蓝光电影网

查看: 125|回复: 0

[惊悚] 夺命隧道 The.Tunnel.2019.720p.BluRay.x264-YAMG 2.30GB

[复制链接]
蓝光币
1020
发表于 2022-8-1 08:31:51 | 显示全部楼层 |阅读模式


◎译  名 夺命地道 / 地道浩劫:火海求生(港) / 地道逃生 / The Tunnel
◎片  名 Tunnelen
◎年  代 2019
◎产  地 挪威
◎类  别 惊悚 / 灾难
◎语  言 挪威语
◎上映日期 2019-12-25(挪威)
◎IMDb链接 https://www.imdb.com/title/tt9049042/
◎豆瓣评分 5.9/10 (1103人评价)
◎豆瓣链接 https://movie.douban.com/subject/30363710/
◎片  长 105分钟
◎导  演 帕尔·奥耶 P?l ?ie (id:1303478)
◎编  剧 克耶尔斯蒂·海伦·拉斯穆森 Kjersti Helen Rasmussen (id:1445117)
◎演  员 托尔比约恩·哈尔 Thorbj?rn Harr (id:1101538)
       伊尔瓦·伯杜德 Ylva Fuglerud (id:1445118)
       丽莎·卡勒希德 Lisa Carlehed (id:1395499)
       米克尔·布拉特·西尔塞特 Mikkel Bratt Silset (id:1445119)
       彼得·福尔德 Peter F?rde (id:1445120)
       丹尼尔·亚历山大·斯卡达尔 Daniel Alexander Skadal (id:1445121)
       珀·埃吉尔·埃斯克 Per Egil Aske (id:1057419)
       简·冈纳·勒伊斯 Jan Gunnar R?ise (id:1428506)
       英维尔·霍尔特·拜格德内斯 Ingvild Holthe Bygdnes (id:1445122)
       伊戈尔·内克默 Igor Necemer (id:1445123)
       西莉耶·布雷维克 Silje Breivik (id:1443151)
       埃尔达·斯卡 Eldar Skar (id:1360101)
       凯瑞·豪根·西德尼斯 Kyrre Haugen Sydness (id:1354175)
       亨利克·霍尔姆 Henrik Holm (id:1365543)
◎简  介

  挪威是个具有大量公路地道的国家,可是由于地道扶植时缺少应急计划和救灾出亡设备,地道内的火灾常常是致命的。                                       
                                    斯坦好不轻易在圣诞节前一天请了假,筹算与女儿和女伴一路渡个假,但伊莉斯却由于满心都是归天的母亲,跟斯坦大吵一架,坐上了去奥斯陆的远程大巴。可就在伊莉斯坐的大巴驶上天道后未几,大巴前面行驶的油罐车失变乱致使地道里的交通都梗塞住了,卑劣的天气让一切救济都不能实时赶到。尔后油罐车还短路爆炸了,滚烫的浓烟瞬间填满了地道。伊莉斯带着大师自救,到地道里的检验小屋里出亡。斯坦开车冲进了浓烟去寻觅自己的女儿。地道里遍及大量梗塞的死者,伊莉斯他们出亡的小屋里也逐步被烟雾填满,终究,斯坦出现并救了伊莉斯和几位幸存者。返程路上,救济中心告诉斯坦有两位小女孩就困在他们四周,斯坦让女儿和幸存者先走,自己单独去寻觅两个姑娘。小姑娘找到了,但把一切呼吸装备都给了他人的斯坦却撑...
  1. Video
  2. ID                                       : 1
  3. Format                                   : AVC
  4. Format/Info                              : Advanced Video Codec
  5. Format profile                           : [email protected]
  6. Format settings                          : CABAC / 12 Ref Frames
  7. Format settings, CABAC                   : Yes
  8. Format settings, Reference frames        : 12 frames
  9. Codec ID                                 : V_MPEG4/ISO/AVC
  10. Duration                                 : 1 h 43 min
  11. Bit rate                                 : 2 499 kb/s
  12. Width                                    : 1 280 pixels
  13. Height                                   : 536 pixels
  14. Display aspect ratio                     : 2.40:1
  15. Frame rate mode                          : Constant
  16. Frame rate                               : 24.000 FPS
  17. Color space                              : YUV
  18. Chroma subsampling                       : 4:2:0
  19. Bit depth                                : 8 bits
  20. Scan type                                : Progressive
  21. Bits/(Pixel*Frame)                       : 0.152
  22. Stream size                              : 1.82 GiB (79%)
  23. Writing library                          : x264 core 164 r3065 ae03d92
  24. Encoding settings                        : cabac=1 / ref=12 / deblock=1:-3:-3 / analyse=0x3:0x133 / me=umh / subme=10 / psy=1 / psy_rd=1.00:0.00 / mixed_ref=1 / me_range=32 / chroma_me=1 / trellis=2 / 8x8dct=1 / cqm=0 / deadzone=21,11 / fast_pskip=0 / chroma_qp_offset=-2 / threads=17 / lookahead_threads=2 / sliced_threads=0 / nr=0 / decimate=0 / interlaced=0 / bluray_compat=0 / constrained_intra=0 / bframes=8 / b_pyramid=2 / b_adapt=2 / b_bias=0 / direct=3 / weightb=1 / open_gop=0 / weightp=2 / keyint=250 / keyint_min=24 / scenecut=40 / intra_refresh=0 / rc=crf / mbtree=0 / crf=17.0 / qcomp=0.60 / qpmin=0 / qpmax=69 / qpstep=4 / ip_ratio=1.40 / pb_ratio=1.30 / aq=3:0.60
  25. Language                                 : English
  26. Default                                  : Yes
  27. Forced                                   : No
  28. Color range                              : Limited
  29. Matrix coefficients                      : BT.709

  30. Audio
  31. ID                                       : 2
  32. Format                                   : AC-3
  33. Format/Info                              : Audio Coding 3
  34. Commercial name                          : Dolby Digital
  35. Format settings                          : Dolby Surround EX
  36. Codec ID                                 : A_AC3
  37. Duration                                 : 1 h 43 min
  38. Bit rate mode                            : Constant
  39. Bit rate                                 : 640 kb/s
  40. Channel(s)                               : 6 channels
  41. Channel layout                           : L R C LFE Ls Rs
  42. Sampling rate                            : 48.0 kHz
  43. Frame rate                               : 31.250 FPS (1536 SPF)
  44. Compression mode                         : Lossy
  45. Stream size                              : 476 MiB (20%)
  46. Title                                    : Norwegian
  47. Language                                 : Norwegian
  48. Service kind                             : Complete Main
  49. Default                                  : Yes
  50. Forced                                   : No

  51. Text #1
  52. ID                                       : 3
  53. Format                                   : UTF-8
  54. Codec ID                                 : S_TEXT/UTF8
  55. Codec ID/Info                            : UTF-8 Plain Text
  56. Duration                                 : 1 h 37 min
  57. Bit rate                                 : 46 b/s
  58. Count of elements                        : 1218
  59. Stream size                              : 33.1 KiB (0%)
  60. Title                                    : English Forced
  61. Language                                 : English
  62. Default                                  : Yes
  63. Forced                                   : Yes

  64. Text #2
  65. ID                                       : 4
  66. Format                                   : PGS
  67. Muxing mode                              : zlib
  68. Codec ID                                 : S_HDMV/PGS
  69. Codec ID/Info                            : Picture based subtitle format used on BDs/HD-DVDs
  70. Duration                                 : 1 h 38 min
  71. Bit rate                                 : 29.7 kb/s
  72. Count of elements                        : 2025
  73. Stream size                              : 20.9 MiB (1%)
  74. Title                                    : English Forced PGS
  75. Language                                 : English
  76. Default                                  : No
  77. Forced                                   : No

  78. Text #3
  79. ID                                       : 5
  80. Format                                   : PGS
  81. Muxing mode                              : zlib
  82. Codec ID                                 : S_HDMV/PGS
  83. Codec ID/Info                            : Picture based subtitle format used on BDs/HD-DVDs
  84. Duration                                 : 1 h 38 min
  85. Bit rate                                 : 25.5 kb/s
  86. Count of elements                        : 2027
  87. Stream size                              : 17.9 MiB (1%)
  88. Title                                    : Traditional Chinese PGS
  89. Language                                 : Chinese
  90. Default                                  : No
  91. Forced                                   : No

  92. Menu
  93. 00:00:00.000                             : Chapter 01
  94. 00:06:00.833                             : Chapter 02
  95. 00:12:57.500                             : Chapter 03
  96. 00:15:24.083                             : Chapter 04
  97. 00:22:20.917                             : Chapter 05
  98. 00:28:57.750                             : Chapter 06
  99. 00:34:08.958                             : Chapter 07
  100. 00:38:43.208                             : Chapter 08
  101. 00:46:45.333                             : Chapter 09
  102. 00:52:41.458                             : Chapter 10
  103. 00:55:15.750                             : Chapter 11
  104. 01:00:31.958                             : Chapter 12
  105. 01:05:34.292                             : Chapter 13
  106. 01:10:25.208                             : Chapter 14
  107. 01:19:42.333                             : Chapter 15
  108. 01:27:37.125                             : Chapter 16
  109. 01:34:21.542                             : Chapter 17
  110. 01:39:11.000                             : Chapter 18
复制代码





                                       
                                       

                                       
                                       
                                       




回复

使用道具 举报

懒得打字嘛,点击右侧快捷回复 【右侧内容,后台自定义】
您需要登录后才可以回帖 登录 | 立即加入

本版积分规则

Archiver|小黑屋| 蓝光电影网 |网站地图

Copyright © 2021 Comsenz Inc. Powered by 蓝光电影网

蓝光电影网

本站内容由用户自主分享和转载自互联网,转载目的在于传递更多信息,并不代表本网赞同其观点和对其真实性负责。

如有侵权、违反国家法律政策行为,请联系我们,我们会第一时间及时清除和处理!

举报反馈邮箱:[email protected]

快速回复 返回顶部 返回列表