找回密码

蓝光电影网

查看: 47|回复: 1

[剧情] 夜惊魂 Child.in.the.Night.1990.1080p.BluRay.x264-YAMG 12.48GB

[复制链接]
蓝光币
886
发表于 2022-8-1 08:49:17 | 显示全部楼层 |阅读模式


◎译  名 夜惊魂
◎片  名 Child in the Night
◎年  代 1990
◎产  地 意大利 / 美国
◎类  别 剧情 / 悬疑 / 惊悚
◎语  言 英语
◎上映日期 1990-05-01(美国)
◎IMDb链接 https://www.imdb.com/title/tt0099252/
◎豆瓣评分 7.1/10 (117人评价)
◎豆瓣链接 https://movie.douban.com/subject/1462175/
◎片  长 95分钟
◎导  演 麦克·罗伯 Mike Robe (id:1295754)
◎演  员 乔贝兹·威廉姆斯 JoBeth Williams (id:1036479)
       汤姆·斯凯里特 Tom Skerritt (id:1049603)
       伊利亚·伍德 Elijah Wood (id:1054395)
       达伦·麦克加文 Darren McGavin (id:1048215)
       约翰·艾尔瓦德 John Aylward (id:1061147)
       赛季·赫布利 Season Hubley (id:1102298)
       Jane Jones Jane Jones (id:1112980)
       约翰·普罗卡奇诺 John Procaccino (id:1346467)
       罗伯特·哈维 Robert Harvey (id:1096368)
       Michael di Martino Michael di Martino (id:1090321)
       Johnny DiCarsano Johnny DiCarsano (id:1086756)
       蒂姆·乔特 Tim Choate (id:1074279)
       汤姆·布雷 Thom Bray (id:1048291)
       Karen Trumbo Karen Trumbo (id:1394397)
       Gerald Hirschfeld Gerald Hirschfeld (id:1048693)
       本杰明·A.维斯曼 Benjamin A. Weissman (id:1276428)
       芭芭拉·克拉曼 Barbara Claman (id:1072898)
       K·C·福克斯 K.C. Fox (id:1283906)
◎简  介

  A psychologist treats an 8 year old boy who witnessed his father's murder but the child blocks out details that could help the police.
  1. Video
  2. ID                                       : 1
  3. Format                                   : AVC
  4. Format/Info                              : Advanced Video Codec
  5. Format profile                           : [email protected]
  6. Format settings                          : CABAC / 5 Ref Frames
  7. Format settings, CABAC                   : Yes
  8. Format settings, Reference frames        : 5 frames
  9. Codec ID                                 : V_MPEG4/ISO/AVC
  10. Duration                                 : 1 h 35 min
  11. Bit rate                                 : 17.3 Mb/s
  12. Width                                    : 1 440 pixels
  13. Height                                   : 1 080 pixels
  14. Display aspect ratio                     : 4:3
  15. Frame rate mode                          : Constant
  16. Frame rate                               : 23.976 (24000/1001/189150) FPS
  17. Color space                              : YUV
  18. Chroma subsampling                       : 4:2:0
  19. Bit depth                                : 8 bits
  20. Scan type                                : Progressive
  21. Bits/(Pixel*Frame)                       : 0.464
  22. Stream size                              : 11.5 GiB (92%)
  23. Writing library                          : x264 core 164 r3081 19856cc
  24. Encoding settings                        : cabac=1 / ref=5 / deblock=1:-3:-3 / analyse=0x3:0x133 / me=umh / subme=10 / psy=1 / psy_rd=1.00:0.00 / mixed_ref=1 / me_range=32 / chroma_me=1 / trellis=2 / 8x8dct=1 / cqm=0 / deadzone=21,11 / fast_pskip=0 / chroma_qp_offset=-2 / threads=24 / lookahead_threads=4 / sliced_threads=0 / nr=0 / decimate=0 / interlaced=0 / bluray_compat=0 / constrained_intra=0 / bframes=8 / b_pyramid=2 / b_adapt=2 / b_bias=0 / direct=3 / weightb=1 / open_gop=0 / weightp=2 / keyint=250 / keyint_min=23 / scenecut=40 / intra_refresh=0 / rc=crf / mbtree=0 / crf=19.0 / qcomp=0.60 / qpmin=0 / qpmax=69 / qpstep=4 / ip_ratio=1.40 / pb_ratio=1.30 / aq=3:0.60
  25. Language                                 : English
  26. Default                                  : Yes
  27. Forced                                   : No
  28. Color range                              : Limited
  29. Matrix coefficients                      : BT.709

  30. Audio
  31. ID                                       : 2
  32. Format                                   : FLAC
  33. Format/Info                              : Free Lossless Audio Codec
  34. Codec ID                                 : A_FLAC
  35. Duration                                 : 1 h 35 min
  36. Bit rate mode                            : Variable
  37. Bit rate                                 : 1 422 kb/s
  38. Channel(s)                               : 2 channels
  39. Channel layout                           : L R
  40. Sampling rate                            : 48.0 kHz
  41. Frame rate                               : 11.719 FPS (4096 SPF)
  42. Bit depth                                : 24 bits
  43. Compression mode                         : Lossless
  44. Stream size                              : 970 MiB (8%)
  45. Title                                    : English
  46. Writing library                          : libFLAC 1.3.3 (UTC 2019-08-04)
  47. Language                                 : English
  48. Default                                  : Yes
  49. Forced                                   : No

  50. Text #1
  51. ID                                       : 3
  52. Format                                   : UTF-8
  53. Codec ID                                 : S_TEXT/UTF8
  54. Codec ID/Info                            : UTF-8 Plain Text
  55. Duration                                 : 1 h 32 min
  56. Bit rate                                 : 68 b/s
  57. Count of elements                        : 1598
  58. Stream size                              : 46.7 KiB (0%)
  59. Title                                    : English
  60. Language                                 : English
  61. Default                                  : No
  62. Forced                                   : No

  63. Text #2
  64. ID                                       : 4
  65. Format                                   : UTF-8
  66. Codec ID                                 : S_TEXT/UTF8
  67. Codec ID/Info                            : UTF-8 Plain Text
  68. Duration                                 : 1 h 35 min
  69. Bit rate                                 : 75 b/s
  70. Count of elements                        : 1896
  71. Stream size                              : 52.5 KiB (0%)
  72. Title                                    : English SDH
  73. Language                                 : English
  74. Default                                  : No
  75. Forced                                   : No

  76. Text #3
  77. ID                                       : 5
  78. Format                                   : PGS
  79. Muxing mode                              : zlib
  80. Codec ID                                 : S_HDMV/PGS
  81. Codec ID/Info                            : Picture based subtitle format used on BDs/HD-DVDs
  82. Duration                                 : 1 h 35 min
  83. Bit rate                                 : 32.7 kb/s
  84. Count of elements                        : 3793
  85. Stream size                              : 22.3 MiB (0%)
  86. Title                                    : English Forced PGS
  87. Language                                 : English
  88. Default                                  : No
  89. Forced                                   : No

  90. Menu
  91. 00:00:00.000                             : en:Chapter 01
  92. 00:16:23.983                             : en:Chapter 02
  93. 00:43:19.097                             : en:Chapter 03
  94. 00:57:30.948                             : en:Chapter 04
  95. 01:19:42.778                             : en:Chapter 05
复制代码





                                       
                                       

                                       
                                       
                                       




回复

使用道具 举报

蓝光币
169
发表于 2022-8-1 19:29:16 | 显示全部楼层
楼主发贴辛苦了,谢谢楼主分享!我觉得蓝光电影网是注册对了!
回复 支持 反对

使用道具 举报

懒得打字嘛,点击右侧快捷回复 【右侧内容,后台自定义】
您需要登录后才可以回帖 登录 | 立即加入

本版积分规则

Archiver|小黑屋| 蓝光电影网 |网站地图

Copyright © 2021 Comsenz Inc. Powered by 蓝光电影网

蓝光电影网

本站内容由用户自主分享和转载自互联网,转载目的在于传递更多信息,并不代表本网赞同其观点和对其真实性负责。

如有侵权、违反国家法律政策行为,请联系我们,我们会第一时间及时清除和处理!

举报反馈邮箱:[email protected]

快速回复 返回顶部 返回列表