找回密码

蓝光电影网

查看: 41|回复: 0

[剧情] 只在那里发光 The.Light.Shines.Only.There.2014.1080p.BluRay.x264-YAMG 7.13GB

[复制链接]
蓝光币
886
发表于 2022-8-1 08:47:37 | 显示全部楼层 |阅读模式


◎译  名 只在那边发光 / 阳光在何处光辉(港) / 阳光只在这里光辉(台) / 阳光只在那边光辉 / The Light Shines Only There
◎片  名 そこのみにて光輝く
◎年  代 2014
◎产  地 日本
◎类  别 剧情
◎语  言 日语
◎上映日期 2014-04-19(日本)
◎IMDb链接 https://www.imdb.com/title/tt3039932/
◎豆瓣评分 7.3/10 (7397人评价)
◎豆瓣链接 https://movie.douban.com/subject/24839101/
◎片  长 120分钟
◎导  演 吴美保 Mipo Oh (id:1339744)
◎编  剧 高田亮 Ry? Takada (id:1345458)
       佐藤泰志 Yasushi Sat? (id:1345457)
◎演  员 绫野刚 G? Ayano  (id:1314909)
       池胁千鹤 Chizuru Ikewaki (id:1042111)
       菅田将晖 Masaki Suda (id:1274418)
       高桥和也 Kazuya Takahashi (id:1045940)
       火野正平 Sh?hei Hino (id:1100355)
◎简  介

  故事发生在一座阔别大城市的小城市,无所作为的青年佐藤达夫(绫野刚 饰)已经在某矿山工作,但在目击一次变乱后让他挑选逃离。平常里他周游在城市各个角落,直到某天在小钢珠店结识了小青年大城拓儿(菅田将晖 饰)。拓儿此后果危险罪入狱服刑,后来假释出狱,经姐姐千夏(池胁千鹤 饰)先容在熟人的公司谋得一份差事。他们的家贫困不胜,父亲卧病在床,千夏在三流酒吧内出售精神,平常还不能不委身与拓儿的老板(高桥和也 饰),饱受屈辱。初度重逢,似乎让达夫和千夏对相互有了好感,他们越走越近,孤独的心靠在一路相偎取暖。但是命运的玩弄却才刚刚起头……                                    
                                本片按照已故作家佐藤泰志唯逐一部长篇小说改编。
◎获奖情况 (共5项)
  第38届日本电影学院奖 (2015)
  最好女配角(提名)
   └──池胁千鹤 (id:1042111)
  第38届蒙特利尔天下电影节 (2014)
  美洲大奖(提名)
   └──吴美保 (id:1339744)
  第9届亚洲电影大奖 (2015)
  最好电影(提名)
  最好女配角
   └──池胁千鹤 (id:1042111)
  最好编剧(提名)
   └──高田亮 (id:1345458)
  1. Video
  2. ID                                       : 1
  3. Format                                   : AVC
  4. Format/Info                              : Advanced Video Codec
  5. Format profile                           : [email protected]
  6. Format settings                          : CABAC / 5 Ref Frames
  7. Format settings, CABAC                   : Yes
  8. Format settings, Reference frames        : 5 frames
  9. Codec ID                                 : V_MPEG4/ISO/AVC
  10. Duration                                 : 1 h 59 min
  11. Bit rate                                 : 7 309 kb/s
  12. Width                                    : 1 920 pixels
  13. Height                                   : 802 pixels
  14. Display aspect ratio                     : 2.40:1
  15. Frame rate mode                          : Constant
  16. Frame rate                               : 23.976 (24000/1001/189150) FPS
  17. Color space                              : YUV
  18. Chroma subsampling                       : 4:2:0
  19. Bit depth                                : 8 bits
  20. Scan type                                : Progressive
  21. Bits/(Pixel*Frame)                       : 0.198
  22. Stream size                              : 6.12 GiB (86%)
  23. Writing library                          : x264 core 164 r3075 66a5bc1
  24. Encoding settings                        : cabac=1 / ref=5 / deblock=1:-3:-3 / analyse=0x3:0x133 / me=umh / subme=10 / psy=1 / psy_rd=1.00:0.00 / mixed_ref=1 / me_range=32 / chroma_me=1 / trellis=2 / 8x8dct=1 / cqm=0 / deadzone=21,11 / fast_pskip=0 / chroma_qp_offset=-2 / threads=24 / lookahead_threads=4 / sliced_threads=0 / nr=0 / decimate=0 / interlaced=0 / bluray_compat=0 / constrained_intra=0 / bframes=8 / b_pyramid=2 / b_adapt=2 / b_bias=0 / direct=3 / weightb=1 / open_gop=0 / weightp=2 / keyint=250 / keyint_min=23 / scenecut=40 / intra_refresh=0 / rc=crf / mbtree=0 / crf=17.0 / qcomp=0.60 / qpmin=0 / qpmax=69 / qpstep=4 / ip_ratio=1.40 / pb_ratio=1.30 / aq=3:0.60
  25. Language                                 : English
  26. Default                                  : Yes
  27. Forced                                   : No
  28. Color range                              : Limited
  29. Matrix coefficients                      : BT.709

  30. Audio
  31. ID                                       : 2
  32. Format                                   : FLAC
  33. Format/Info                              : Free Lossless Audio Codec
  34. Codec ID                                 : A_FLAC
  35. Duration                                 : 1 h 59 min
  36. Bit rate mode                            : Variable
  37. Bit rate                                 : 1 188 kb/s
  38. Channel(s)                               : 6 channels
  39. Channel layout                           : L R C LFE Ls Rs
  40. Sampling rate                            : 48.0 kHz
  41. Frame rate                               : 11.719 FPS (4096 SPF)
  42. Bit depth                                : 16 bits
  43. Compression mode                         : Lossless
  44. Stream size                              : 1 019 MiB (14%)
  45. Title                                    : Japanese
  46. Writing library                          : libFLAC 1.3.3 (UTC 2019-08-04)
  47. Language                                 : Japanese
  48. Default                                  : Yes
  49. Forced                                   : No

  50. Text #1
  51. ID                                       : 3
  52. Format                                   : UTF-8
  53. Codec ID                                 : S_TEXT/UTF8
  54. Codec ID/Info                            : UTF-8 Plain Text
  55. Duration                                 : 1 h 57 min
  56. Bit rate                                 : 15 b/s
  57. Count of elements                        : 634
  58. Stream size                              : 13.4 KiB (0%)
  59. Title                                    : English Forced
  60. Language                                 : English
  61. Default                                  : Yes
  62. Forced                                   : Yes

  63. Text #2
  64. ID                                       : 4
  65. Format                                   : PGS
  66. Muxing mode                              : zlib
  67. Codec ID                                 : S_HDMV/PGS
  68. Codec ID/Info                            : Picture based subtitle format used on BDs/HD-DVDs
  69. Duration                                 : 1 h 57 min
  70. Bit rate                                 : 12.3 kb/s
  71. Count of elements                        : 1270
  72. Stream size                              : 10.4 MiB (0%)
  73. Title                                    : English Forced PGS
  74. Language                                 : English
  75. Default                                  : No
  76. Forced                                   : No

  77. Text #3
  78. ID                                       : 5
  79. Format                                   : PGS
  80. Muxing mode                              : zlib
  81. Codec ID                                 : S_HDMV/PGS
  82. Codec ID/Info                            : Picture based subtitle format used on BDs/HD-DVDs
  83. Duration                                 : 1 h 55 min
  84. Bit rate                                 : 20.7 kb/s
  85. Count of elements                        : 1806
  86. Stream size                              : 17.1 MiB (0%)
  87. Title                                    : Japanese PGS
  88. Language                                 : Japanese
  89. Default                                  : No
  90. Forced                                   : No

  91. Menu
  92. 00:00:00.000                             : en:Chapter 01
  93. 00:10:40.598                             : en:Chapter 02
  94. 00:20:22.888                             : en:Chapter 03
  95. 00:28:04.558                             : en:Chapter 04
  96. 00:40:11.576                             : en:Chapter 05
  97. 00:49:01.856                             : en:Chapter 06
  98. 01:00:10.023                             : en:Chapter 07
  99. 01:10:29.183                             : en:Chapter 08
  100. 01:18:58.943                             : en:Chapter 09
  101. 01:31:29.192                             : en:Chapter 10
  102. 01:39:00.268                             : en:Chapter 11
  103. 01:48:56.864                             : en:Chapter 12
复制代码





                                       
                                       

                                       
                                       
                                       




回复

使用道具 举报

懒得打字嘛,点击右侧快捷回复 【右侧内容,后台自定义】
您需要登录后才可以回帖 登录 | 立即加入

本版积分规则

Archiver|小黑屋| 蓝光电影网 |网站地图

Copyright © 2021 Comsenz Inc. Powered by 蓝光电影网

蓝光电影网

本站内容由用户自主分享和转载自互联网,转载目的在于传递更多信息,并不代表本网赞同其观点和对其真实性负责。

如有侵权、违反国家法律政策行为,请联系我们,我们会第一时间及时清除和处理!

举报反馈邮箱:[email protected]

快速回复 返回顶部 返回列表