找回密码

蓝光电影网

查看: 119|回复: 0

[剧情] 听我细唱 Hear.My.Song.1991.1080p.BluRay.x264-YAMG 11.34GB

[复制链接]
蓝光币
1022
发表于 2022-8-1 08:43:08 | 显示全部楼层 |阅读模式


◎译  名 听我细唱 / 惊奇上天堂
◎片  名 Hear My Song
◎年  代 1991
◎产  地 爱尔兰 / 英国
◎类  别 剧情 / 笑剧 / 音乐
◎语  言 英语
◎上映日期 1991-09-07
◎IMDb链接 https://www.imdb.com/title/tt0102014/
◎豆瓣链接 https://movie.douban.com/subject/1304907/
◎片  长 Canada: 113 分钟
◎导  演 彼德·切尔瑟姆 Peter Chelsom (id:1000595)
◎编  剧 威廉·胡特金斯 William Hootkins (id:1010721)
       阿德里安·敦巴 Adrian Dunbar (id:1022978)
       彼德·切尔瑟姆 Peter Chelsom (id:1000595)
◎演  员 塔拉·菲茨杰拉德 Tara Fitzgerald (id:1049888)
       尼德·巴蒂 Ned Beatty (id:1010558)
       威廉·胡特金斯 William Hootkins (id:1010721)
       雪莉·安妮·菲尔德 Shirley Anne Field (id:1012559)
       詹姆斯·内斯比特 James Nesbitt (id:1013997)
       ?弗兰克·凯利? Frank Kelly (id:1014258)
       斯蒂芬·马库斯 Stephen Marcus (id:1019197)
       Rúaidhrí Conroy Rúaidhrí Conroy (id:1281153)
       阿德里安·敦巴 Adrian Dunbar (id:1022978)
       玛丽·麦克劳德 Mary MacLeod (id:1123998)
       Anna Manahan Anna Manahan (id:1116768)
       John Dair John Dair (id:1079091)
       Harold Berens Harold Berens (id:1067088)
       大卫·麦考姆 David McCallum (id:1049567)
       Norman Vaughan Norman Vaughan (id:1152474)
       Simon Fields Simon Fields (id:1283679)
       艾莉森·欧文 Alison Owen (id:1293750)
       约翰·阿尔特曼 John Altman (id:1058002)
       Sue Gibson Sue Gibson (id:1284826)
       马丁·沃尔什 Martin Walsh (id:1166278)
       林迪·海明 Lindy Hemming (id:1025450)
       Ailbhe Lemass Ailbhe Lemass (id:1289784)
       Carole Dunne Carole Dunne (id:1282820)
◎简  介

  The film is based loosely on the life of the Irish Tenor, Josef Locke (1917-1999), played by Ned Beatty. The film's exposition begins in Liverpool's Irish community, with Micky O'Neil (Adrian Dunbar) running Hartley's Night Club. Micky is a bit of a rogue, and although he considers Nancy Doyle (Tara Fitzgerald) his girl friend, he seems conflicted in saying "I love you". Follow...
◎获奖情况 (共2项)
  第46届英国电影学院奖 (1993)
  电影奖 最好原创剧本(提名)
  电影奖 最好原创音乐(提名)
   └──约翰·阿尔特曼 (id:1058002)
  1. Video
  2. ID                                       : 1
  3. Format                                   : AVC
  4. Format/Info                              : Advanced Video Codec
  5. Format profile                           : [email protected]
  6. Format settings                          : CABAC / 4 Ref Frames
  7. Format settings, CABAC                   : Yes
  8. Format settings, Reference frames        : 4 frames
  9. Codec ID                                 : V_MPEG4/ISO/AVC
  10. Duration                                 : 1 h 44 min
  11. Bit rate                                 : 14.9 Mb/s
  12. Width                                    : 1 916 pixels
  13. Height                                   : 1 080 pixels
  14. Display aspect ratio                     : 16:9
  15. Frame rate mode                          : Constant
  16. Frame rate                               : 23.976 (24000/1001/189150) FPS
  17. Color space                              : YUV
  18. Chroma subsampling                       : 4:2:0
  19. Bit depth                                : 8 bits
  20. Scan type                                : Progressive
  21. Bits/(Pixel*Frame)                       : 0.301
  22. Stream size                              : 10.9 GiB (96%)
  23. Writing library                          : x264 core 164 r3095 baee400
  24. Encoding settings                        : cabac=1 / ref=4 / deblock=1:-3:-3 / analyse=0x3:0x133 / me=umh / subme=10 / psy=1 / psy_rd=1.00:0.00 / mixed_ref=1 / me_range=32 / chroma_me=1 / trellis=2 / 8x8dct=1 / cqm=0 / deadzone=21,11 / fast_pskip=0 / chroma_qp_offset=-2 / threads=24 / lookahead_threads=4 / sliced_threads=0 / nr=0 / decimate=0 / interlaced=0 / bluray_compat=0 / constrained_intra=0 / bframes=8 / b_pyramid=2 / b_adapt=2 / b_bias=0 / direct=3 / weightb=1 / open_gop=0 / weightp=2 / keyint=250 / keyint_min=23 / scenecut=40 / intra_refresh=0 / rc=crf / mbtree=0 / crf=21.0 / qcomp=0.60 / qpmin=0 / qpmax=69 / qpstep=4 / ip_ratio=1.40 / pb_ratio=1.30 / aq=3:0.60
  25. Language                                 : English
  26. Default                                  : Yes
  27. Forced                                   : No
  28. Color range                              : Limited
  29. Matrix coefficients                      : BT.709

  30. Audio
  31. ID                                       : 2
  32. Format                                   : FLAC
  33. Format/Info                              : Free Lossless Audio Codec
  34. Codec ID                                 : A_FLAC
  35. Duration                                 : 1 h 44 min
  36. Bit rate mode                            : Variable
  37. Bit rate                                 : 595 kb/s
  38. Channel(s)                               : 2 channels
  39. Channel layout                           : L R
  40. Sampling rate                            : 48.0 kHz
  41. Frame rate                               : 11.719 FPS (4096 SPF)
  42. Bit depth                                : 16 bits
  43. Compression mode                         : Lossless
  44. Stream size                              : 446 MiB (4%)
  45. Title                                    : English
  46. Writing library                          : libFLAC 1.3.3 (UTC 2019-08-04)
  47. Language                                 : English
  48. Default                                  : Yes
  49. Forced                                   : No

  50. Text #1
  51. ID                                       : 3
  52. Format                                   : UTF-8
  53. Codec ID                                 : S_TEXT/UTF8
  54. Codec ID/Info                            : UTF-8 Plain Text
  55. Duration                                 : 1 h 40 min
  56. Bit rate                                 : 48 b/s
  57. Count of elements                        : 1151
  58. Stream size                              : 35.6 KiB (0%)
  59. Title                                    : English
  60. Language                                 : English
  61. Default                                  : No
  62. Forced                                   : No

  63. Text #2
  64. ID                                       : 4
  65. Format                                   : UTF-8
  66. Codec ID                                 : S_TEXT/UTF8
  67. Codec ID/Info                            : UTF-8 Plain Text
  68. Duration                                 : 1 h 40 min
  69. Bit rate                                 : 51 b/s
  70. Count of elements                        : 1264
  71. Stream size                              : 38.2 KiB (0%)
  72. Title                                    : English SDH
  73. Language                                 : English
  74. Default                                  : No
  75. Forced                                   : No

  76. Text #3
  77. ID                                       : 5
  78. Format                                   : PGS
  79. Muxing mode                              : zlib
  80. Codec ID                                 : S_HDMV/PGS
  81. Codec ID/Info                            : Picture based subtitle format used on BDs/HD-DVDs
  82. Duration                                 : 1 h 43 min
  83. Bit rate                                 : 28.5 kb/s
  84. Count of elements                        : 2386
  85. Stream size                              : 21.0 MiB (0%)
  86. Title                                    : Japanese PGS
  87. Language                                 : Japanese
  88. Default                                  : No
  89. Forced                                   : No

  90. Menu
  91. 00:00:00.000                             : :Chapter 01
  92. 00:08:05.276                             : :Chapter 02
  93. 00:17:11.739                             : :Chapter 03
  94. 00:26:11.779                             : :Chapter 04
  95. 00:35:52.192                             : :Chapter 05
  96. 00:44:13.526                             : :Chapter 06
  97. 00:53:35.504                             : :Chapter 07
  98. 01:00:09.356                             : :Chapter 08
  99. 01:10:43.865                             : :Chapter 09
  100. 01:19:31.934                             : :Chapter 10
  101. 01:27:44.634                             : :Chapter 11
复制代码




                                       
                                       

                                       
                                       
                                       




回复

使用道具 举报

懒得打字嘛,点击右侧快捷回复 【右侧内容,后台自定义】
您需要登录后才可以回帖 登录 | 立即加入

本版积分规则

Archiver|小黑屋| 蓝光电影网 |网站地图

Copyright © 2021 Comsenz Inc. Powered by 蓝光电影网

蓝光电影网

本站内容由用户自主分享和转载自互联网,转载目的在于传递更多信息,并不代表本网赞同其观点和对其真实性负责。

如有侵权、违反国家法律政策行为,请联系我们,我们会第一时间及时清除和处理!

举报反馈邮箱:[email protected]

快速回复 返回顶部 返回列表